<?xml version="1.0" standalone="no"?>
<!DOCTYPE svg PUBLIC "-//W3C//DTD SVG 1.1//EN" "http://www.w3.org/Graphics/SVG/1.1/DTD/svg11.dtd" >
<svg xmlns="http://www.w3.org/2000/svg">
<metadata>
This is a custom SVG font generated by IcoMoon.
<iconset grid="16"></iconset>
</metadata>
<defs>
<font id="SocialMedia" horiz-adv-x="512" >
<font-face units-per-em="512" ascent="480" descent="-32" />
<missing-glyph horiz-adv-x="512" />
<glyph unicode="&#x2900;" d="M 479.402,316.049c-10.237,11.382-22.777,20.321-37.661,26.845
	c-14.885,6.51-31.617,9.771-50.202,9.771c-14.883,0.00-28.723-2.344-41.501-6.976
	c-12.779-4.659-24.642-10.817-35.558-18.484
	c-10.931-7.668-21.181-16.621-30.70-26.845
	c-9.505-10.238-18.696-20.701-27.536-31.391
	c-9.305,11.155-18.726,21.732-28.242,31.729
	c-9.519,9.998-19.77,18.838-30.685,26.506
	c-10.917,7.667-22.779,13.825-35.558,18.484
	c-12.78,4.632-26.852,6.976-42.187,6.976c-18.605,0.00-35.345-3.389-50.216-10.125
	c-14.875-6.736-27.438-15.801-37.661-27.183
	c-10.23-11.41-18.019-24.882-23.349-40.473
	c-5.367-15.56-8.021-32.421-8.021-50.554c0.00-18.131, 2.775-35.09, 8.374-50.905
	c 5.564-15.788, 13.698-29.388, 24.396-40.783
	c 10.696-11.41, 23.482-20.461, 38.359-27.197c 14.871-6.75, 31.845-10.11, 50.90-10.11
	c 15.357,0.00, 29.167,2.202, 41.495,6.608c 12.33,4.421, 23.71,10.238, 34.161,17.439
	c 10.477,7.217, 20.349,15.575, 29.625,25.108
	c 9.319,9.53, 18.853,19.402, 28.61,29.627
	c 8.839-10.225, 18.13-20.097, 27.904-29.627
	c 9.757-9.533, 20.095-17.892, 31.023-25.108
	c 10.915-7.201, 22.665-13.019, 35.218-17.439c 12.555-4.406, 26.025-6.608, 40.443-6.608
	c 18.60,0.00, 35.445,3.36, 50.556,10.11c 15.107,6.736, 27.776,16.042, 38.014,27.891
	c 10.209,11.86, 18.132,25.687, 23.724,41.502c 5.563,15.803, 8.359,32.762, 8.359,50.907
	c0.00,18.131-2.796,34.851-8.359,50.214C 497.534,291.294, 489.611,304.639, 479.402,316.049z
	 M 195.579,202.359c-6.976-6.735-14.418-12.78-22.311-18.104
	c-7.908-5.352-16.268-9.771-25.109-13.26c-8.847-3.501-17.687-5.238-26.505-5.238
	c-17.20,0.00-30.671,5.337-40.436,16.042c-9.766,10.704-14.658,24.40-14.658,41.147
	c0.00,15.337, 4.773,29.176, 14.305,41.489c 9.524,12.313, 22.432,18.498, 38.707,18.498
	c 8.825,0.00, 17.665-2.006, 26.498-5.945c 8.825-3.94, 17.313-8.938, 25.446-14.982
	c 8.134-6.043, 15.928-12.681, 23.356-19.881c 7.428-7.203, 13.953-13.84, 19.545-19.884
	C 208.826,215.746, 202.556,209.109, 195.579,202.359z M 431.982,182.489
	c-9.318-11.154-22.55-16.731-39.752-16.731c-9.756,0.00-18.938,1.624-27.549,4.885
	c-8.599,3.248-16.848,7.556-24.756,12.922
	c-7.907,5.323-15.336,11.367-22.311,18.117
	c-6.963,6.736-13.472,13.585-19.53,20.561
	c 5.578,6.044, 11.863,12.681, 18.838,19.884c 6.963,7.20, 14.277,13.838, 21.958,19.881
	c 7.683,6.044, 15.802,11.042, 24.402,14.982c 8.614,3.939, 17.552,5.945, 26.858,5.945
	c 17.199,0.00, 30.80-5.832, 40.796-17.452c 9.983-11.623, 14.997-25.574, 14.997-41.828
	C 445.935,207.372, 441.274,193.646, 431.982,182.489z"  />
<glyph unicode="&#x2901;" d="M 240.332,422.646C 93.228,429.512-5.92,348.882, 0.257,247.553
	c 1.541-24.92, 13.832-54.02, 27.151-71.608c0.00,0.00, 3.327-5.109, 10.202-12.596
	l 2.751,6.164C 60.519,214.516, 102.438,308.055, 103.204,309.566
	c 0.415,0.802, 0.845,1.604, 1.28,2.386c 0.45,0.718, 0.879,1.329, 1.408,1.899
	c 0.907,1.006, 2.046,1.653, 3.672,1.625c 3.391,0.00, 4.932-2.652, 6.367-5.84
	c 0.155-0.401, 72.391-162.004, 73.313-163.932c 0.12-0.352, 0.365-0.859, 0.668-1.549
	c 0.246-0.744, 0.527-1.547, 0.71-2.631c 0.429-2.012, 0.513-4.672-0.465-7.754
	c-3.391-10.652-13.628-11.918-16.583-11.807
	c-12.017,0.424-16.844,13.27-16.851,13.355c0.00,0.00-5.762,14.029-7.211,17.393
	c-1.273,2.758-2.336,3.813-4.545,3.783L 73.83,156.496 
	c-2.293,0.029-3.146-1.025-4.06-3.18c-1.14-2.561-5.024-11.863-5.024-11.863
	l-0.534-1.293c 58.67-40.836, 140.862-39.40, 152.879-61.143
	c 10.877-19.60-12.088-45.73-76.81-30.322c-2.603,0.592-3.694,0.592-3.919-0.436
	c-0.063-0.943, 0.767-1.52, 2.771-2.309c 26.399-10.469, 65.137-21.389, 127.868-20.994
	c 146.456,0.857, 240.271,81.178, 244.646,172.348
	C 517.644,321.872, 376.059,416.299, 240.332,422.646z M 244.897,141.51
	c0.00-12.539-6.91-17.939-18.625-17.939c-11.707,0.00-18.567,5.40-18.567,17.939L 207.706,296.03 
	c0.00,12.51, 6.923,17.983, 18.645,17.983c 11.708,0.00, 18.546-5.474, 18.546-17.983L 244.897,141.51 z
	 M 462.345,296.03l0.00-154.52 c0.00-12.539-7.162-17.939-18.913-17.939
	c-11.693,0.00-18.435,5.40-18.435,17.939l0.00,72.045 l-36.036-73.395
	c-3.546-5.994-10.006-11.961-18.181-11.779
	c-7.458-0.182-13.409,6.096-16.479,11.596l-36.163,73.777l0.00-72.244 
	c0.00-12.539-6.768-17.939-18.489-17.939s-18.897,5.40-18.897,17.939L 280.752,296.03 
	c0.00,12.51, 6.557,17.983, 18.292,17.983c 6.276,0.00, 11.061-1.632, 14.213-4.833
	c 1.744-1.724, 3.321-4.003, 4.685-6.931L 370.906,182.275L 425.125,302.249
	c 1.379,2.927, 2.955,5.207, 4.699,6.931c 3.109,3.201, 7.91,4.833, 14.198,4.833
	C 455.716,314.013, 462.345,308.54, 462.345,296.03zM 132.772,191.107l-20.683,48.984l-0.275,0.50l-0.337,0.811
	c-0.254,0.324-0.79,1.226-1.819,1.226c-1.029,0.00-1.592-0.901-1.825-1.226
	c-0.155-0.247-0.268-0.508-0.38-0.811l-0.226-0.528l-20.774-49.026
	c-0.416-1.001-0.311-3.144, 1.832-3.144l 42.734,0.00 
	C 132.892,187.894, 133.513,189.528, 132.772,191.107z"  />
<glyph unicode="&#x2902;" d="M 460.621,222.606c0.00,0.00-16.689,31.349-37.783,63.77
		c-34.392-31.202-70.032-25.98-85.205-22.656
		c-19.964,4.374-25.378,12.943-23.741,20.469
		c-11.632,3.682-52.555,28.092-77.292,36.207
		c-47.58-29.20-66.649-102.148-64.358-176.36
		c-31.922-61.108-55.678-81.757-120.862-96.839
		c 12.265-29.007, 17.211-39.896, 35.382-78.349
		c 81.501,22.254, 133.632,70.45, 165.651,111.699
		c 54.547-13.998, 94.412-48.925, 127.378-112.324
		c 34.183,28.74, 37.96,31.699, 67.057,55.263
		C 424.177,78.24, 368.483,125.604, 315.438,151.396
		c 0.477,12.942, 0.893,16.186, 1.399,26.345
		C 394.784,157.214, 460.621,222.606, 460.621,222.606zM 324.691,334.268c 39.807,0.00, 73.602,32.569, 73.602,72.747
		c0.00,40.187-33.795,72.763-73.602,72.763c-39.838,0.00-73.143-32.577-73.143-72.763
		C 251.549,366.836, 284.854,334.268, 324.691,334.268z"  />
<glyph unicode="&#x2903;" d="M 418.229,122.213c-11.034-3.466-20.733-8.327-29.679-14.583
		c-6.897-4.903-4.596-12.611, 2.30-11.893c 7.566,1.393, 17.845,3.397, 28.879,4.96
		c 24.118,2.029, 42.875-1.11, 49.771-10.197c 9.654-11.834-3.034-59.715-12.063-82.116
		c-2.634-6.974, 3.512-9.807, 9.781-4.861c 28.385,16.49, 44.767,57.793, 44.767,99.88
		l0.00,4.228 c0.00,5.62-1.378,9.764-2.676,11.836
		C 503.039,127.116, 452.505,133.744, 418.229,122.213zM 280.679,324.775c-11.682-0.997-25.138-1.994-38.61-3.956
		c-20.687-2.894-41.33-6.849-58.365-15.629C 150.462,290.494, 128.00,259.206, 128.00,213.221
		c0.00-57.689, 34.114-87.049, 77.234-87.049c 14.388,0.00, 26.055,1.93, 36.834,4.823
		c 17.051,5.982, 31.425,16.723, 48.489,36.243
		c 9.848-14.633, 12.599-21.515, 29.633-37.143c 4.496-1.994, 8.932-1.994, 12.57,0.899
		c 10.794,9.873, 29.634,27.432, 39.512,37.238c 4.494,3.924, 3.578,9.775, 0.916,14.696
		c-9.879,13.667-19.755,25.404-19.755,51.805l0.00,88.046 
		c0.00,37.205, 2.66,71.42-22.447,96.857C 310.342,440.218, 278.019,448.00, 252.834,448.00l-10.766,0.00 
		c-45.811-2.926-94.313-24.407-105.107-86.084c-1.774-7.814, 3.638-10.741, 7.216-11.738
		l 50.292-6.849c 5.397,0.997, 8.059,5.853, 8.946,10.773
		c 4.525,21.513, 20.703,32.253, 38.654,34.247l 3.58,0.00 
		c 10.765,0.00, 22.432-4.921, 28.762-14.697c 7.126-11.736, 6.269-27.397, 6.269-41.064
		L 280.679,324.775 z M 270.831,208.334c-6.358-13.634-17.11-22.478-28.763-25.404
		c-1.817,0.00-4.479-0.997-7.20-0.997c-19.771,0.00-31.454,16.626-31.454,41.097
		c0.00,31.289, 17.08,45.954, 38.654,52.834c 11.652,2.926, 25.126,3.891, 38.61,3.891
		l0.00-11.77 C 280.679,245.475, 281.536,227.885, 270.831,208.334zM 439.304,72.877c-3.972-1.635-8.488-3.934-12.459-5.534
		c-57.596-24.863-118.009-36.362-174.058-36.362
		c-89.045,0.00-175.028,26.998-244.566,71.592c-6.472,3.833-10.989-3.332-5.502-8.267
		c 64.521-64.456, 149.534-102.984, 244.596-102.984
		c 59.006,0.00, 126.996,18.164, 179.53,52.858c 6.972,4.466, 13.974,9.365, 20.521,14.832
		C 456.339,66.212, 448.307,77.209, 439.304,72.877z"  />
<glyph unicode="&#x2904;" d="M 48.424,320.50c-16.836,0.00-30.502-13.874-30.502-30.99L 17.922,158.969 
	C 17.922,141.881, 31.588,128.00, 48.424,128.00c 16.849,0.00, 30.516,13.881, 30.516,30.969L 78.939,289.51 
	C 78.939,306.626, 65.272,320.50, 48.424,320.50z M 432.384,320.61
	c-17.68,0.00-32.028-14.568-32.028-32.542l0.00-127.158 c0.00-17.945, 14.349-32.521, 32.028-32.521
	c 17.693,0.00, 32.044,14.576, 32.044,32.521L 464.428,288.068 
	C 464.428,306.042, 450.077,320.61, 432.384,320.61z M 94.781,114.22
	c0.00-27.614, 22.386-50.00, 50.00-50.00l 15.115,0.00 l0.00-64.374 C 159.896-17.742, 174.154-32.00, 191.743-32.00
	s 31.846,14.258, 31.846,31.846l0.00,64.374 l 32.462,0.00 l0.00-64.374 
	C 256.051-17.742, 270.309-32.00, 287.896-32.00c 17.589,0.00, 31.847,14.258, 31.847,31.846l0.00,64.374 
	l 13.653,0.00 c 27.614,0.00, 50.00,22.386, 50.00,50.00L 383.396,288.50 L 94.781,288.50 L 94.781,114.22 z M 301.46,435.128l 18.662,38.632
	c 0.961,1.989, 0.128,4.381-1.861,5.341c-1.991,0.962-4.382,0.129-5.342-1.862
	l-18.817-38.954C 278.00,444.605, 259.835,448.049, 239.562,448.049
	c-20.043,0.00-38.092-3.44-54.147-9.754L 166.602,477.24
	c-0.961,1.99-3.353,2.824-5.341,1.862c-1.989-0.961-2.823-3.352-1.862-5.341
	l 18.66-38.627c-43.426-20.249-71.051-62.576-82.769-114.523l 288.546,0.00 
	C 372.119,372.553, 344.937,414.877, 301.46,435.128z M 175.651,344.679
	c-12.604,0.00-22.821,10.217-22.821,22.821s 10.217,22.821, 22.821,22.821
	S 198.473,380.104, 198.473,367.50S 188.255,344.679, 175.651,344.679z M 304.149,344.679
	c-12.604,0.00-22.821,10.217-22.821,22.821s 10.218,22.821, 22.821,22.821
	S 326.971,380.104, 326.971,367.50S 316.753,344.679, 304.149,344.679z"  />
<glyph unicode="&#x2905;" d="M 79.034,40.967l-30.313,17.327c-5.544,3.161-10.669,0.585-11.405-5.749
		l-5.226-45.41c-0.723-6.321, 3.001-8.591, 8.273-5.006l 39.168,26.53
		C 84.804,32.23, 84.578,37.794, 79.034,40.967zM 248.978,318.811l-30.313,17.268c-5.543,3.213-12.727,1.281-15.907-4.249
		L 57.383,88.999c-3.22-5.538-1.268-12.642, 4.276-15.803l 30.306-17.326
		c 5.544-3.16, 12.721-1.274, 15.908,4.263L 253.253,302.984
		C 256.428,308.494, 254.516,315.604, 248.978,318.811zM 251.743,255.545L 198.30,160.438L 331.422,160.438L 288.029,255.545 	zM 422.922,161.408c-7.643,13.409-69.873,130.946-99.61,176.523
		C 293.521,383.521, 254.365,453.385, 243.276,448.00
		c-15.551-7.502, 31.958-97.847, 47.883-134.075
		c 15.927-36.222, 78.062-175.063, 90.521-181.131
		c 12.487-6.015, 17.278-2.669, 25.603,0.664
		C 415.606,136.816, 430.552,147.997, 422.922,161.408zM 500.395,255.545l-98.692,0.00 c 12.521-23.29, 24.179-47.917, 32.332-63.373
		c 5.63-10.702, 9.667-18.389, 11.272-21.245c 1.847-3.359, 2.948-6.931, 3.639-10.489
		l 51.449,0.00 c 6.388,0.00, 11.605,5.178, 11.605,11.578l0.00,69.47 
		C 512.00,247.847, 506.782,255.545, 500.395,255.545zM 126.502,256.045L 11.755,256.045 c-6.401,0.00-11.632-5.198-11.632-11.559l0.00-72.47 
		c0.00-6.40, 5.231-11.578, 11.632-11.578l 61.31,0.00 L 126.502,256.045zM 458.495,47.117c-5.438-5.443-18.446-17.191-2.71-40.025
		C 471.442-15.79, 506.422-16.801, 510.996-32.00C 510.996-32.00, 522.047,84.187, 458.495,47.117
		zM 456.751,67.071c 5.936,3.505, 8.154,11.524, 4.888,17.766l-16.421,30.577
		c-3.266,6.255-10.954,8.777-17.074,5.67l-17.421-8.923
		c-6.121-3.16-8.074-10.528-4.29-16.504l 20.244-31.721
		c 3.785-5.923, 11.737-7.859, 17.633-4.288L 456.751,67.071z"  />
<glyph unicode="&#x2906;" d="M 282.513,444.781c 19.76,19.511, 53.164,34.00, 80.731,34.971
		c 3.505-27.074-9.444-54.205-28.561-73.745
		c-19.15-19.511-50.502-34.707-81.292-32.667
		C 249.224,399.846, 264.735,427.462, 282.513,444.781z M 439.294,31.021
		c-22.87-31.193-46.519-62.264-83.872-62.878
		c-36.744-0.648-48.535,31.061-90.471,31.061c-41.971,0.00-55.133-30.446-89.827-31.709
		c-36.049-1.262-63.467,33.718-86.519,64.79
		C 41.509,95.839, 5.56,212.053, 53.912,290.436
		c 23.928,38.954, 66.841,63.572, 113.324,64.234
		c 35.405,0.601, 68.859-22.293, 90.471-22.293c 21.679,0.00, 62.275,27.482, 104.956,23.463
		c 17.875-0.692, 68.015-6.728, 100.211-50.731c-2.529-1.57-59.845-32.687-59.15-97.567
		c 0.679-77.522, 72.727-103.265, 73.554-103.604
		C 476.615,102.091, 465.75,67.172, 439.294,31.021z"  />
<glyph unicode="&#x2907;" d="M 466.233,225.782c-1.619,9.998-7.629,18.772-16.503,24.118
	c-4.538,4.48-12.664,21.022-12.066,53.063
	c 0.536,28.886, 1.073,55.255, 1.417,72.134c 0.317,15.545, 0.383,18.911, 0.369,19.277
	c-1.579,29.568-18.405,85.486-70.786,85.486c-24.177,0.00-53.234-12.336-86.364-36.666
	l-0.223-0.164L 65.606,193.022l-0.208-0.277
	c-1.396-2.169-33.974-53.633-13.169-101.108
	c 14.184-32.341, 48.97-53.802, 103.418-63.795l 1.435-0.246l 1.54,0.069
	c 10.456,0.722, 20.54,2.754, 30.291,4.717l 1.27,0.257
	c 10.637,2.151, 20.685,4.185, 29.687,4.185c 10.574,0.00, 22.834-2.431, 33.588-20.432
	c 10.425-17.919, 34.541-47.979, 78.913-47.979c 20.469,0.00, 42.203,6.489, 66.443,19.835
	l 0.305,0.198c 14.076,10.727, 32.903,31.252, 33.923,85.401
	c 0.374,3.914, 0.535,10.451, 0.734,19.94c 1.472,69.543, 7.491,82.334, 9.865,84.644
	l 4.315,0.314l 3.304,3.825C 453.151,184.782, 469.64,204.784, 466.233,225.782z
	 M 435.068,200.828c-21.461-8.455-24.172-53.272-25.315-106.553
	c-0.165-8.431-0.31-14.729-0.672-18.996l-0.009-0.161
	c-0.633-33.247-8.229-55.115-23.22-66.848
	c-19.516-10.613-37.509-15.994-53.483-15.994c-32.277,0.00-50.295,22.659-58.177,36.193
	c-13.155,21.979-30.417,32.215-54.324,32.215c-11.379,0.00-23.072-2.369-34.379-4.66
	l-1.154-0.232c-8.537-1.722-17.36-3.501-25.858-4.199
	c-45.162,8.515-73.488,25.169-84.19,49.504
	c-13.674,31.045, 4.503,67.12, 10.399,77.438c 0.039,0.068, 0.081,0.142, 0.123,0.22
	L 297.67,424.802c 28.419,20.714, 52.302,31.216, 70.994,31.216
	c 42.055,0.00, 46.551-58.426, 46.79-62.12c-0.05-2.362-0.938-43.302-1.813-90.501
	c-0.986-52.742, 18.136-69.857, 21.979-72.752l 0.203-0.137
	c 5.211-3.168, 6.315-6.199, 6.691-8.486C 443.563,215.694, 439.433,207.047, 435.068,200.828z
	 M 387.62,215.323c-16.472-0.936-31.072-0.936-31.072-0.936l-0.013,141.315
	c0.00,0.00-4.569,38.059-41.146,11.782L 122.523,141.009c0.00,0.00-12.798-19.023,0.00-22.616
	c0.00,0.00, 12.797-9.978, 23.765-5.423c 9.138,8.107, 50.275,63.399, 155.395,75.502
	c-0.896-54.703, 0.922-131.689, 0.922-131.689s 29.256-30.792, 57.576,0.00
	c0.00,31.54-0.908,131.971-0.908,144.034c 2.03-0.48, 9.55,2.017, 29.24,4.502
	C 388.514,205.318, 404.078,209.887, 387.62,215.323z M 306.267,214.388
	c0.00,0.00-43.904-3.606-61.271-4.461c-17.36-0.882-4.569,8.089-4.569,8.089
	l 65.839,73.386L 306.267,214.388 z"  />
<glyph unicode="&#x2908;" d="M 210.303,236.499c-19.851-0.417-40.939-9.354-51.205-27.141
	c-6.725-11.95-10.822-26.081-8.564-39.825
	c 2.721-15.137, 9.199-30.396, 21.675-39.966
	c 16.883-12.939, 40.831-17.037, 60.419-7.839
	c 19.712,7.731, 31.555,27.736, 34.354,48.021
	c 2.18,15.182-2.396,30.982-11.07,43.443
	C 245.80,227.957, 227.789,235.687, 210.303,236.499z M 451.607,239.193
	c-14.796,50.532-51.111,93.52-96.519,119.555
	C 303.219,388.594, 238.115,391.631, 182.396,371.00c-28.20-11.286-53.663-28.911-74.581-50.888
	c-0.371,45.206-0.031,90.443-0.201,135.672c 0.062,8.782-5.334,17.54-13.589,20.825
	c-9.57,3.85-20.732,3.765-30.21-0.286
	c-7.993-3.456-12.955-11.951-13.11-20.508
	c-0.417-45.948, 0.65-91.896, 0.371-137.845
	c-0.278-49.759, 0.634-99.502, 0.402-149.269c 1.144-28.061, 7.467-56.044, 19.171-81.615
	c 20.732-44.247, 57.682-80.718, 102.27-100.693
	c 37.568-15.986, 79.821-22.464, 120.097-14.271
	c 49.303,8.643, 94.555,36.564, 124.965,76.235
	c 28.726,36.826, 42.902,83.702, 43.413,130.114
	C 460.76,199.004, 457.56,219.52, 451.607,239.193z M 402.892,154.061
	c-4.669-32.79-20.687-63.805-44.695-86.624
	c-21.012-21.072-48.87-35.002-78.245-39.594
	c-33.905-5.597-69.758,1.222-99.209,18.985
	c-15.522,9.523-29.189,21.97-40.723,36.038
	c-40.738,50.168-43.181,127.656-5.411,180.135
	c 12.167,16.118, 26.468,30.952, 43.784,41.573
	c 18.321,11.518, 39.347,18.475, 60.821,20.972
	c 35.838,4.182, 73.406-4.762, 102.703-26.074c 21.923-16.45, 40.136-38.326, 50.911-63.634
	C 403.325,210.151, 407.499,181.533, 402.892,154.061z"  />
<glyph unicode="&#x2909;" d="M 340.339,279.254c-7.726,0.00-14.896-1.476-21.494-4.40
	c-6.573-2.938-12.238-7.188-16.982-12.769L 301.862,320.00 l-21.006,0.00 l0.00-160.157 l 19.923,0.00 l0.00,14.861 
	c 4.581-5.566, 8.891-9.617, 12.915-12.152c 6.749-4.278, 15.003-6.396, 24.814-6.396
	c 17.538,0.00, 31.239,6.074, 41.133,18.24c 9.881,12.179, 14.812,27.468, 14.812,45.855
	c0.00,19.41-4.973,34.109-14.987,44.075C 369.436,274.29, 356.413,279.254, 340.339,279.254z
	 M 363.50,186.024c-5.814-8.396-14.582-12.595-26.319-12.595
	c-15.598,0.00-26.237,6.385-31.931,19.234c-3.034,6.786-4.58,15.679-4.58,26.61
	c0.00,15.127, 3.713,26.018, 11.152,32.59c 7.401,6.599, 16.074,9.898, 25.954,9.898
	c 11.344,0.00, 19.909-4.023, 25.724-12.072c 5.827-8.02, 8.754-18.172, 8.754-30.417
	C 372.254,205.526, 369.327,194.42, 363.50,186.024z M0.00,160.164l 181.623,0.00 l 93.107,158.888
	L 93.093,319.052 L0.00,160.164z M 479.903,183.496c-5.258-4.803-12.373-7.203-21.318-7.203
	c-11.695,0.00-20.274,3.867-25.709,11.565c-5.436,7.685-8.187,17.213-8.187,28.454
	c0.00,11.229, 1.938,20.639, 5.774,28.285c 5.923,11.734, 15.775,17.628, 29.558,17.628
	c 10.057,0.00, 17.415-2.284, 21.956-6.892c 4.566-4.583, 7.495-10.347, 8.797-17.279l 21.005,0.00 
	c-1.855,15.058-7.305,25.677-16.412,31.856c-9.094,6.153-20.858,9.255-35.346,9.255
	c-17.008,0.00-30.939-5.518-41.918-16.511c-10.978-11.021-16.479-26.417-16.479-46.173
	c0.00-16.123, 5.014-29.571, 15.028-40.332C 426.656,165.375, 440.086,160.00, 456.892,160.00
	c 14.99,0.00, 27.254,3.479, 36.864,10.386c 9.621,6.88, 15.626,17.809, 18.023,32.737
	l-21.005,0.00 C 488.753,194.815, 485.136,188.26, 479.903,183.496z"  />
<glyph unicode="&#x290b;" d="M 256.14,437.255c-137.767,0.00-245.685-175.244-255.883-323.282
	c 43.218-75.00, 147.455-103.228, 255.883-103.228c 108.402,0.00, 212.637,28.228, 255.854,103.228
	C 501.782,262.011, 393.878,437.255, 256.14,437.255z M 475.993,149.242l 3.024-18.818
	c0.00,0.00-16.262-84.789-219.707-84.789c-203.444,0.00-222.877,86.206-222.877,86.206
	l 3.771,20.469c0.00,0.00, 55.99,120.849, 91.201,120.849c 35.243,0.00, 50.116-50.117, 78.753-50.117
	c 28.668,0.00, 91.086,110.535, 113.412,110.535c 1.271,0.00, 2.60-0.176, 3.931-0.425
	c 0.408-0.073, 0.834-0.19, 1.227-0.277c 1.037-0.249, 2.104-0.557, 3.172-0.95
	c 0.407-0.146, 0.804-0.277, 1.226-0.438c 1.477-0.57, 2.982-1.243, 4.545-2.031l-0.015,0.00 
	C 359.864,318.00, 389.525,284.57, 414.627,253.389
	C 445.572,215.021, 475.993,149.242, 475.993,149.242z"  />
<glyph unicode="&#x290c;" d="M 332.807,352.006L 230.408,352.006 c-28.322,0.00-51.207-22.917-51.207-51.207
	c0.00-28.237, 22.885-51.207, 51.207-51.207l 102.399,0.00 c 23.639,0.00, 51.20-39.102, 51.20-89.604
	c0.00-49.40-45.957-89.587-102.414-89.587l-51.185,0.00 
	c-56.473,0.00-102.414,45.957-102.414,102.398L 127.994,428.806 
	c0.00,28.313-22.948,51.207-51.207,51.207c-28.291,0.00-51.208-22.894-51.208-51.207l0.00-256.006 
	c0.00-112.899, 91.86-204.813, 204.829-204.813l 51.185,0.00 c 112.914,0.00, 204.828,86.145, 204.828,192.001
	C 486.421,265.909, 417.508,352.006, 332.807,352.006z"  />
<glyph unicode="&#x290d;" d="M 208.153,235.344c 10.474,5.469, 18.397,11.508, 23.761,18.17
			c 9.636,11.856, 14.434,27.486, 14.434,47.001c0.00,18.919-4.743,35.203-14.278,48.761
			c-15.906,22.114-42.843,33.374-80.846,34.008L 0.476,383.285 l0.00-319.303 l 140.572,0.00 
			c 15.819,0.00, 30.508,1.448, 44.067,4.318c 13.528,2.87, 25.286,8.206, 35.228,16.029
			c 8.833,6.746, 16.172,15.14, 22.081,25.073
			c 9.314,15.026, 13.883,32.007, 13.883,50.958c0.00,18.315-4.046,33.914-12.167,46.768
			C 236.082,220.027, 224.035,229.387, 208.153,235.344z M 148.107,128.189l-84.922,0.00 L 63.186,191.891 
			l 84.274,0.00 c 23.308,0.00, 31.289-18.731, 31.289-31.161
			C 178.749,146.006, 172.063,128.189, 148.107,128.189z M 148.107,255.564l-84.922,0.00 L 63.186,319.266 
			l 84.274,0.00 c 23.308,0.00, 31.289-18.731, 31.289-31.161
			C 178.749,273.381, 172.063,255.564, 148.107,255.564zM 336.23,352.00L 463.50,352.00L 463.50,320.136L 336.23,320.136zM 510.003,203.193c-2.771,16.578-8.731,31.095-18.004,43.676
			c-10.249,14.269-23.26,24.657-38.992,31.271C 437.211,284.729, 419.508,288.00, 399.874,288.00
			c-33.121,0.00-59.993-9.72-80.809-29.277c-20.75-19.51-31.088-47.532-31.088-84.174
			c0.00-39.057, 11.504-67.219, 34.44-84.572c 23.008-17.306, 52.668-25.994, 82.728-25.994
			c 36.41,0.00, 64.763,10.296, 84.986,30.826c 13.036,12.919, 20.287,25.631, 21.869,38.151
			l-60.297,0.00 c-3.475-6.143-12.36-21.871-44.901-21.871
			c-35.164,0.00-54.813,19.311-54.813,49.188l 159.957,0.00 
			C 512.237,178.556, 511.548,193.543, 510.003,203.193z M 350.888,203.255
			c 2.049,12.759, 7.063,22.856, 15.138,30.285c 7.99,7.427, 19.262,11.206, 33.846,11.206
			c 13.402,0.00, 24.647-3.541, 33.628-10.588c 9.075-7.026, 14.113-17.319, 15.174-30.903
			L 350.888,203.255 z"  />
<glyph unicode="&#x290e;" d="M 255.99,245.539c-52.254,0.00-94.654-30.695-94.654-68.561
		c0.00-37.847, 42.399-68.556, 94.654-68.556c 52.299,0.00, 94.653,30.709, 94.653,68.556
		C 350.643,214.844, 308.289,245.539, 255.99,245.539zM 255.99,353.975c-61.843,0.00-118.627-15.19-162.90-40.473L 93.09,448.353 L0.00,448.353 l0.00-276.279 
		l 0.362,0.00 C 4.183,76.595, 116.989,0.00, 255.99,0.00c 141.405,0.00, 255.989,79.233, 255.989,176.978
		C 511.979,274.742, 397.395,353.975, 255.99,353.975z M 255.99,58.989
		c-89.947,0.00-162.90,52.832-162.90,117.988c0.00,65.163, 72.953,117.995, 162.90,117.995
		c 89.991,0.00, 162.90-52.832, 162.90-117.995
		C 418.89,111.821, 345.98,58.989, 255.99,58.989z"  />
<glyph unicode="&#x290f;" d="M 49.598,165.021l-17.597,17.907l0.00-105.736 l-31.926-31.938l 77.197-77.181L 109.199,0.00
	l 105.834,0.00 L 49.598,165.021z M 32.00,317.628l0.00-91.612 c 59.641,0.00, 117.937-23.25, 160.162-65.504
	c 42.158-42.162, 65.438-100.653, 65.438-160.512l 91.971,0.00 
	C 349.57,173.95, 205.833,317.628, 32.00,317.628z M 31.977,479.926l0.00-91.583 
	c 212.645,0.00, 388.115-175.459, 388.115-388.343l 91.834,0.00 
	C 511.926,263.35, 295.291,479.926, 31.977,479.926z"  />
<glyph unicode="&#x2910;" d="M 506.227,276.289l-7.261,5.595c-9.409,7.39-57.146-0.517-69.984,11.174
	c-9.136,8.328-10.558,23.382-13.324,43.772
	c-5.126,39.489-8.359,41.559-14.553,54.963
	C 378.644,439.334, 317.65,475.053, 275.735,480.002L 162.277,480.002 C 72.985,480.002,0.00,407.17,0.00,318.234
	l0.00-188.739 c0.00-88.791, 72.985-161.509, 162.277-161.509l 186.452,0.00 
	c 89.276,0.00, 161.784,72.718, 162.286,161.509l 1.001,130.721l-1.503,7.115L 506.227,276.289
	z M 164.323,349.826l 89.987,0.00 c 17.158,0.00, 31.094-13.938, 31.094-30.885
	c0.00-16.881-13.937-30.95-31.094-30.95l-89.987,0.00 c-17.182,0.00-31.055,14.068-31.055,30.95
	C 133.268,335.887, 147.141,349.826, 164.323,349.826z M 347.144,99.082L 164.323,99.082 
	c-17.182,0.00-31.055,14.068-31.055,30.806c0.00,16.945, 13.874,30.773, 31.055,30.773l 182.821,0.00 
	c 17.076,0.00, 30.918-13.828, 30.918-30.773
	C 378.062,113.15, 364.22,99.082, 347.144,99.082z"  />
<glyph unicode="&#x2911;" d="M 502.992,284.165c-9.642,6.931-24.104,5.123-31.604-4.066l-39.923-51.417
		l-39.962,51.469c-7.393,9.085-21.937,10.97-31.538,4.00
		c-9.805-7.085-11.96-20.674-4.782-30.354l 47.891-61.702l-47.917-61.74
		c-7.165-9.602-5.009-23.205, 4.809-30.303c 9.602-6.945, 24.105-5.124, 31.592,4.066
		l 39.908,51.402l 39.989-51.468c 4.338-5.331, 10.86-8.389, 17.904-8.389
		c 4.942,0.00, 9.656,1.523, 13.633,4.388c 9.816,7.098, 11.974,20.701, 4.769,30.354
		l-47.89,61.688l 47.929,61.753C 514.952,263.464, 512.795,277.054, 502.992,284.165zM 270.439,288.488c-34.994,0.00-67.114-17.50-85.261-46.073
		c-18.126,28.572-50.247,46.073-85.241,46.073c-19.565,0.00-38.254-5.355-54.458-15.539
		l0.00,71.975 l-0.021,3.304l-0.321,0.00 c-1.848,10.312-11.276,18.222-22.405,18.222
		s-20.55-7.911-22.392-18.222L0.00,190.638l 0.034-3.305l 0.114,0.00 
		c 2.645-50.732, 46.725-91.462, 99.791-91.462c 35.001,0.00, 67.121,17.499, 85.241,46.048
		c 18.139-28.549, 50.267-46.048, 85.261-46.048c 55.108,0.00, 99.945,43.208, 99.945,96.315
		C 370.385,245.28, 325.548,288.488, 270.439,288.488z M 99.938,139.698
		c-30.031,0.00-54.458,23.54-54.458,52.488c0.00,28.934, 24.427,52.475, 54.458,52.475
		c 30.032,0.00, 54.459-23.541, 54.459-52.475
		C 154.397,163.238, 129.97,139.698, 99.938,139.698z M 270.439,139.698
		c-30.039,0.00-54.458,23.54-54.458,52.488c0.00,28.934, 24.419,52.475, 54.458,52.475
		c 30.038,0.00, 54.466-23.541, 54.466-52.475
		C 324.905,163.238, 300.478,139.698, 270.439,139.698z"  />
<glyph unicode="&#x2912;" d="M 333.108,212.849c 10.886,18.60, 7.903,42.779, 7.903,48.554
		c0.00,5.808, 4.989,44.481-20.784,47.358C 294.432,311.676, 288.00,300.076, 288.00,300.076l0.00-94.719 
		C 288.00,205.357, 322.204,194.283, 333.108,212.849zM 105.257,453.84L0.00-32.00c0.00,0.00, 450.925,146.729, 485.107,162.188
		C 500.089,136.96, 512.00,149.504, 512.00,161.086L 512.00,480.089 c0.00,0.00-315.149,0.00-357.434,0.00
		C 112.264,480.089, 105.257,453.84, 105.257,453.84z M 223.60,425.729l 64.446,9.651l0.00-96.647 
		l 4.104-0.966c 1.049,19.317, 90.331,45.427, 113.046-12.581
		c 22.616-57.976, 2.704-108.231, 2.704-108.231s-22.129-51.238-87.024-60.904
		c-64.874-9.67-97.276,25.144-97.276,25.144L 223.60,425.729 z"  />
<glyph unicode="&#x2913;" d="M 152.865,273.444C 68.458,273.444,0.00,205.082,0.00,120.706
	C0.00,36.379, 68.458-32.00, 152.865-32.00l 70.296,0.00 c 0.689,0.00, 1.359,0.089, 2.049,0.089l0.00,81.732 
	l-43.685,0.00 c0.00,0.00-80.535-6.833-81.895,70.90c 1.359,77.749, 81.895,70.885, 81.895,70.885
	l 43.685,0.00 l0.00,81.726 c-0.689,0.015-1.36,0.112-2.049,0.112L 152.865,273.444 z M 511.827,372.614
	C 511.827,431.919, 440.334,480.00, 352.142,480.00c-88.21,0.00-159.726-48.081-159.726-107.386
	c0.00-59.321, 71.516-107.394, 159.726-107.394c 2.187,0.00, 4.368,0.072, 6.542,0.162l0.00-64.379 
	l 4.292,5.485l0.00-0.604 l 4.689,6.598L 416.00,274.254l-0.001,0.00 
	C 472.374,290.846, 511.827,328.588, 511.827,372.614z"  />
<glyph unicode="&#x2914;" d="M 361.049,273.668c-3.777,0.00-7.48-0.252-11.128-0.673
	c-9.989,19.281-31.091,52.359-75.132,101.515
	c-41.05,45.818-85.184,55.885-114.979,56.262
	c-12.493,0.15-23.567-1.356-32.535-3.294c 0.988,32.289-6.659,62.684-31.874,49.249
	c-28.977-15.449-9.661-27.043-13.50-54.08
	c-3.889-27.058-38.674-3.881-42.513-25.118
	c-3.762-20.602, 28.798-21.236, 69.507-17.735
	c 32.847-9.992, 56.119-41.553, 69.185-93.884c 5.065-20.289, 7.561-40.095, 8.784-55.38
	c 0.022-0.651, 0.056-1.293, 0.074-1.947c 0.01-0.364, 0.018-0.73, 0.027-1.096
	c 0.06-2.365, 0.10-4.742, 0.114-7.136c 0.001-0.2620.00-0.526, 0.00-0.789
	c 0.009-2.519-0.002-5.049-0.045-7.596
	c-53.624-13.662-93.307-62.131-93.307-119.973c0.00-68.438, 55.453-123.98, 123.952-123.98
	c 68.463,0.00, 123.951,55.543, 123.951,123.98c0.00,67.382-53.817,122.20-120.826,123.866
	c-0.618,16.91-2.851,46.275-10.534,77.35
	c-11.184,45.231-30.313,78.859-56.224,99.435c-1.719,1.668-3.476,3.294-5.287,4.862
	c 26.059,2.118, 64.712-4.009, 101.454-45.018
	c 35.371-39.479, 56.051-69.203, 66.865-88.054
	c-14.757-6.437-27.85-15.964-38.534-27.753
	c 18.637-7.838, 35.753-19.30, 50.431-34.057
	c 29.441-29.601, 45.655-68.891, 45.655-110.632c0.00-14.111-1.856-27.948-5.514-41.346
	c 57.95,4.209, 103.795,52.121, 103.795,111.125
	C 472.909,223.581, 422.802,273.668, 361.049,273.668z M 204.222,125.604
	c-0.257-0.696-0.541-1.373-0.837-2.041c-0.061-0.137-0.12-0.274-0.182-0.409
	c-0.294-0.643-0.604-1.271-0.933-1.885c-0.059-0.109-0.12-0.216-0.18-0.325
	c-0.314-0.571-0.641-1.131-0.982-1.677c-0.047-0.074-0.091-0.151-0.139-0.226
	c-0.371-0.583-0.761-1.146-1.162-1.698c-0.085-0.117-0.171-0.233-0.258-0.349
	c-0.41-0.548-0.83-1.083-1.267-1.597c-0.041-0.048-0.084-0.094-0.125-0.142
	c-0.417-0.485-0.848-0.952-1.288-1.406c-0.083-0.085-0.165-0.173-0.249-0.257
	c-0.464-0.468-0.939-0.917-1.425-1.349c-0.095-0.084-0.19-0.165-0.286-0.248
	c-0.491-0.426-0.989-0.838-1.50-1.227c-0.017-0.013-0.033-0.026-0.05-0.039
	c-0.524-0.397-1.061-0.769-1.604-1.126c-0.107-0.071-0.214-0.142-0.322-0.211
	c-0.537-0.343-1.08-0.669-1.632-0.972c-0.081-0.045-0.162-0.085-0.243-0.128
	c-0.521-0.28-1.049-0.542-1.583-0.786c-0.078-0.035-0.155-0.074-0.233-0.108
	c-0.569-0.254-1.145-0.483-1.725-0.694c-0.118-0.043-0.236-0.084-0.354-0.125
	c-0.591-0.205-1.185-0.395-1.785-0.556c-0.031-0.008-0.063-0.015-0.095-0.022
	c-0.579-0.152-1.162-0.279-1.748-0.389c-0.112-0.021-0.225-0.044-0.337-0.063
	c-0.595-0.103-1.191-0.183-1.79-0.239c-0.111-0.011-0.223-0.018-0.334-0.026
	c-0.581-0.047-1.163-0.075-1.745-0.078c-0.035,0.00-0.07-0.005-0.105-0.005
	c-0.012,0.00-0.023,0.002-0.034,0.002c-0.57,0.00-1.141,0.028-1.711,0.072
	c-0.135,0.011-0.27,0.023-0.405,0.037c-0.543,0.052-1.086,0.119-1.627,0.212
	c-0.034,0.006-0.068,0.009-0.103,0.015c-0.565,0.101-1.127,0.229-1.688,0.375
	c-0.139,0.035-0.277,0.073-0.415,0.111c-0.563,0.158-1.125,0.33-1.683,0.535
	c-13.179,4.861-19.309,21.256-13.641,36.656c 0.258,0.698, 0.542,1.378, 0.838,2.048
	c 0.061,0.136, 0.12,0.272, 0.182,0.408c 0.295,0.645, 0.605,1.275, 0.934,1.892
	c 0.058,0.108, 0.119,0.213, 0.177,0.32c 0.314,0.574, 0.642,1.137, 0.984,1.685
	c 0.047,0.075, 0.091,0.152, 0.139,0.227c 0.371,0.584, 0.76,1.149, 1.162,1.701
	c 0.085,0.118, 0.171,0.234, 0.258,0.351c 0.409,0.549, 0.829,1.085, 1.266,1.60
	c 0.042,0.049, 0.085,0.096, 0.127,0.144c 0.416,0.484, 0.844,0.95, 1.282,1.403
	c 0.085,0.088, 0.169,0.178, 0.255,0.265c 0.462,0.467, 0.936,0.915, 1.42,1.347
	c 0.096,0.086, 0.194,0.169, 0.291,0.254c 0.485,0.422, 0.979,0.83, 1.484,1.217
	c 0.022,0.017, 0.043,0.034, 0.065,0.051c 0.521,0.396, 1.055,0.767, 1.595,1.123
	c 0.111,0.072, 0.221,0.146, 0.333,0.217c 0.533,0.342, 1.073,0.667, 1.622,0.969
	c 0.085,0.047, 0.172,0.09, 0.257,0.136c 0.513,0.276, 1.033,0.535, 1.558,0.775
	c 0.084,0.039, 0.168,0.081, 0.253,0.119c 0.564,0.251, 1.135,0.479, 1.71,0.689
	c 0.123,0.045, 0.247,0.088, 0.371,0.131c 0.585,0.204, 1.175,0.393, 1.769,0.552
	c 0.039,0.011, 0.079,0.019, 0.118,0.028c 0.568,0.15, 1.141,0.274, 1.715,0.382
	c 0.121,0.023, 0.241,0.048, 0.362,0.068c 0.587,0.102, 1.177,0.181, 1.769,0.237
	c 0.121,0.012, 0.241,0.02, 0.362,0.028c 0.562,0.045, 1.124,0.073, 1.688,0.076
	c 0.048,0.001, 0.096,0.007, 0.144,0.007c 0.016,0.00, 0.032-0.002, 0.047-0.002
	c 0.563-0.001, 1.126-0.029, 1.688-0.073c 0.143-0.011, 0.285-0.024, 0.427-0.038
	c 0.538-0.052, 1.075-0.119, 1.61-0.211c 0.038-0.006, 0.075-0.01, 0.112-0.017
	c 0.567-0.10, 1.13-0.23, 1.693-0.376c 0.136-0.035, 0.271-0.072, 0.407-0.11
	c 0.566-0.158, 1.13-0.331, 1.689-0.537
	C 203.746,157.424, 209.876,141.002, 204.222,125.604z"  />
<glyph unicode="&#x2916;" d="M 469.597,99.72c 22.149,37.531, 34.993,81.245, 34.993,127.973
	C 504.59,367.037, 391.639,480.00, 252.29,480.00C 112.94,480.00-0.01,367.037-0.01,227.693
	c0.00-139.341, 112.95-252.292, 252.299-252.292c 51.544,0.00, 99.407,15.561, 139.349,42.094
	l 120.138-33.181L 469.597,99.72z M 407.944,146.455l-258.523-60.734
	c-13.156-3.083-26.648,6.443-30.133,21.287L 81.602,267.388
	c-3.484,14.822, 4.362,29.359, 17.517,32.442l 57.614,13.551
	c 16.333,31.499, 49.20,53.042, 87.149,53.042c 21.681,0.00, 41.719-7.049, 57.95-18.964
	l 55.824,13.112c 13.165,3.098, 26.65-6.42, 30.127-21.265l 37.677-160.389
	C 428.938,164.088, 421.093,149.551, 407.944,146.455z M 256.158,292.815
	c-37.858,0.00-68.658-30.80-68.658-68.658S 218.30,155.50, 256.158,155.50
	s 68.658,30.80, 68.658,68.658S 294.016,292.815, 256.158,292.815z M 256.158,188.50
	C 236.496,188.50, 220.50,204.496, 220.50,224.158s 15.996,35.658, 35.658,35.658
	s 35.658-15.996, 35.658-35.658S 275.819,188.50, 256.158,188.50z"  />
<glyph unicode="&#x2917;" d="M 354.197,178.211c0.00,0.00, 22.731,150.901-129.844,301.772
	c0.00,0.00, 44.777-143.687-45.082-211.506c0.00,0.00-15.509,48.288, 2.706,89.446
	c0.00,0.00-101.723-164.443-77.989-262.77c 23.734-98.327, 121.896-127.138, 165.198-127.138
	c 43.324,0.00, 134.872,51.071, 141.638,149.183c 6.791,98.328-32.70,159.361-49.662,177.996
	C 361.162,295.195, 372.84,210.442, 354.197,178.211z"  />
<glyph unicode="&#x2918;" d="M 450.058,420.543c0.00,0.00-109.65,0.00-227.297,0.00c-117.656,0.00-163.879-102.967-172.294-134.486
	C 42.066,254.559, 6.357,84.364, 2.145,57.062c0.00,0.00-9.983-33.662, 14.404-33.662
	c 15.152,0.00, 28.952,6.332, 40.152,16.204c 11.201,9.888, 63.106,51.076, 63.106,51.076
	s 58.828,0.00, 182.785,0.00c 123.973,0.00, 176.50,96.628, 203.798,216.396
	C 533.723,426.83, 450.058,420.543, 450.058,420.543z M 424.445,290.268
	c-20.999-60.94-60.919-123.957-134.458-123.957c-73.537,0.00-182.784,0.00-182.784,0.00
	s 21.013,109.247, 56.729,147.076c 35.709,37.807, 96.644,37.807, 132.358,37.807
	c 35.725,0.00, 88.264,0.00, 88.264,0.00S 445.473,351.194, 424.445,290.268z"  />
<glyph unicode="&#x2919;" d="M 399.14,436.275c-20.424,13.789-42.958,24.738-67.024,32.214
	C 308.048,475.974, 282.478,480.029, 256.006,480.00c-35.289,0.029-69.03-7.16-99.667-20.123
	c-45.943-19.443-85.016-51.886-112.629-92.729
	c-13.788-20.424-24.723-42.957-32.199-67.039C 4.011,276.058-0.015,250.464,0.00,223.994
	c-0.015-35.29, 7.16-69.001, 20.123-99.659c 19.443-45.938, 51.886-85.002, 92.728-112.594
	c 20.425-13.804, 42.958-24.731, 67.04-32.207
	c 24.052-7.507, 49.645-11.518, 76.116-11.518c 35.26,0.00, 69.001,7.153, 99.644,20.115
	c 45.967,19.437, 85.017,51.865, 112.623,92.729
	c 13.773,20.424, 24.746,42.958, 32.192,67.039
	c 7.492,24.053, 11.518,49.623, 11.518,76.094
	c 0.015,35.304-7.153,69.03-20.13,99.667
	C 472.432,369.619, 439.974,408.661, 399.14,436.275z M 459.985,137.843
	c-16.781-39.70-44.89-73.515-80.253-97.404
	c-17.65-11.96-37.117-21.397-57.896-27.842
	c-20.808-6.46-42.883-9.954-65.83-9.969l-0.029,0.00 L 255.977,223.757 L 34.634,223.757 l0.00,0.236 
	c0.00,30.622, 6.178,59.703, 17.379,86.174c 16.782,39.698, 44.889,73.55, 80.223,97.425
	c 17.667,11.938, 37.14,21.361, 57.926,27.828c 20.786,6.474, 42.876,9.946, 65.845,9.946
	l0.00-221.373 l 221.366,0.00 C 477.372,193.409, 471.164,164.326, 459.985,137.843z"  />
<glyph unicode="&#x291a;" d="M 459.00,64.00L 348.004,170.895l-27.163-26.159L 320.841,334.50 l 108.08,0.00 L 258.05,479.604l-0.818-0.688
	l-1.241,1.142l-27.741-25.524L 86.756,335.50L 190.50,335.50 l0.00-49.061 l-13.087,12.604L 74.777,200.20
	l-2.361-2.051l 0.231,0.00 l-6.231-6.001l 55.766,0.00 l0.00-224.121 l 100.674,0.00 L 222.855,192.148 L 287.50,192.148 l0.00-79.521 
	l-42.344-40.779l-4.011-3.146l 0.745,0.00 L 237.007,64.00l 62.136,0.00 l0.00-95.973 l 100.675,0.00 L 399.818,64.00 L 459.00,64.00 z
	 M 223.50,254.658L 223.50,368.50 l-46.256,0.00 l 80.707,67.896L 339.079,367.50L 287.50,367.50 l0.00-174.477 L 223.50,254.658z"  />
<glyph unicode="&#x291b;" d="M 256.00,480.00C 114.615,480.00,0.00,365.385,0.00,224.00c0.00-141.386, 114.615-256.00, 256.00-256.00c 141.386,0.00, 256.00,114.614, 256.00,256.00
		C 512.00,365.385, 397.386,480.00, 256.00,480.00z M 413.686,381.685
		c 20.49-20.49, 36.574-44.342, 47.804-70.893
		c 3.161-7.473, 5.883-15.079, 8.192-22.792L 366.976,288.00 
		C 355.704,307.441, 339.469,323.645, 320.00,334.872L 320.00,437.682 
		c 7.713-2.31, 15.318-5.031, 22.792-8.192
		C 369.343,418.259, 393.194,402.175, 413.686,381.685z M 256.126,128.829
		c-52.408,0.00-95.044,42.637-95.044,95.044s 42.637,95.044, 95.044,95.044
		s 95.044-42.637, 95.044-95.044S 308.534,128.829, 256.126,128.829z M 98.315,381.685
		c 20.49,20.491, 44.342,36.574, 70.893,47.805
		c 7.555,3.195, 15.246,5.941, 23.045,8.267l0.00-102.884 
		C 172.785,323.645, 156.549,307.441, 145.278,288.00L 42.318,288.00 
		c 2.31,7.713, 5.031,15.318, 8.192,22.792
		C 61.741,337.342, 77.825,361.194, 98.315,381.685z M 98.315,66.314
		c-20.491,20.491-36.574,44.343-47.805,70.894
		c-3.126,7.392-5.824,14.912-8.117,22.538L 145.278,159.746 
		c 11.271-19.441, 27.507-35.645, 46.976-46.871l0.00-102.632 
		c-7.80,2.326-15.49,5.072-23.045,8.268
		C 142.658,29.74, 118.806,45.824, 98.315,66.314z M 413.686,66.314
		c-20.491-20.49-44.343-36.574-70.894-47.804
		c-7.474-3.161-15.079-5.883-22.792-8.192L 320.00,112.874 
		c 19.47,11.228, 35.705,27.431, 46.976,46.872l 102.631,0.00 
		c-2.294-7.626-4.991-15.146-8.117-22.538
		C 450.26,110.657, 434.176,86.806, 413.686,66.314z"  />
<glyph unicode="&#x291c;" d="M 363.692,114.845c-3.111,0.00-4.335-1.291-6.86-3.766
		c-4.513-5.624-12.801-16.222-26.74-29.931
		c-22.949-23.207-38.791-34.553-49.32-34.553l-2.364,0.204
		c-7.393,1.834-8.574,8.111-8.466,14.375c 0.178,8.098, 2.785,15.544, 4.879,23.003
		c 17.173,52.50, 42.35,101.074, 63.885,151.617
		c 11.74,26.896, 25.272,53.133, 34.513,80.571
		c 3.966,9.932, 6.671,21.175, 6.873,31.746
		c 0.341,17.501-11.304,28.085-25.556,31.209l-2.147,0.333
		c-3.221,0.00-1.454-3.56-4.293-15.883c-1.428-8.098-4.09-16.195-6.712-24.293
		c-11.942-38.126-30.706-72.453-47.514-106.163l-5.122-9.926l-0.571,3.778
		c-3.396,19.32-24.28,31.094-43.547,31.094c-27.364,0.00-50.068-16.849-69.178-35.524
		c-24.694-24.292-44.063-57.351-53.907-87.364
		c-17.907-57.352-23.722-129.171, 40.945-130.354c 17.453,0.00, 38.254,12.432, 58.003,37.364
		l 3.756,4.416c-0.006-0.639-0.055-2.473-0.088-3.777
		c-0.346-18.111, 9.953-37.459, 29.205-37.459c 22.392,0.00, 47.664,19.985, 86.389,63.057
		c 10.883,11.876, 19.836,23.111, 25.624,33.045c 1.264,3.152, 2.582,5.624, 2.61,7.445
		C 368.054,112.915, 366.18,114.845, 363.692,114.845z M 228.243,91.731
		c-9.593-16.848-23.56-31.833-33.723-40.611
		c-5.924-4.742-11.447-6.793-16.40-6.793c-11.949,0.00-20.00,12.418-19.226,30.557
		c 1.563,46.115, 22.935,93.533, 54.226,130.354
		c 9.47,10.708, 19.729,23.765, 35.245,23.765c 13.125,0.00, 19.742-8.098, 19.457-23.112
		C 267.034,165.387, 249.493,126.624, 228.243,91.731zM 207.767,390.354l 28.208-7.385c 4.144-1.101, 8.41-5.366, 9.498-9.511
		l 7.377-28.302c 1.06-4.144, 2.826-4.144, 3.913,0.00l 7.378,28.302
		c 1.087,4.145, 5.325,8.41, 9.47,9.511l 28.221,7.385
		c 4.117,1.087, 4.117,2.867,0.00,3.934l-28.221,7.405
		c-4.145,1.087-8.383,5.353-9.47,9.511l-7.378,28.309
		c-1.087,4.131-2.854,4.131-3.913,0.00l-7.377-28.309
		c-1.088-4.158-5.354-8.424-9.498-9.511l-28.208-7.405
		C 203.637,393.222, 203.637,391.441, 207.767,390.354zM 149.805,223.798l 9.001,34.553c 2.874,11.066, 14.267,22.479, 25.292,25.38
		l 75.328,19.748c 11.032,2.896, 11.032,7.623,0.00,10.517l-75.328,19.749
		c-11.025,2.895-22.418,14.313-25.292,25.373l-19.702,75.559
		c-2.886,11.073-7.602,11.073-10.489,0.00l-19.681-75.559
		c-2.88-11.06-14.252-22.479-25.306-25.373L 8.309,313.995
		c-11.012-2.894-11.012-7.621,0.00-10.517l 75.32-19.748
		c 11.053-2.901, 22.426-14.313, 25.306-25.38l 17.507-67.175
		C 133.419,202.834, 141.313,213.866, 149.805,223.798zM 507.049,158.988l-44.661,11.725c-6.549,1.699-13.274,8.465-14.999,15.041
		l-11.685,44.79c-1.712,6.556-4.484,6.556-6.195,0.00l-11.686-44.79
		c-1.712-6.576-8.451-13.342-15.00-15.041l-44.634-11.725c-6.563-1.727-6.563-4.525,0.00-6.236
		l 44.634-11.699c 6.549-1.726, 13.288-8.506, 15.00-15.054l 11.686-44.797
		c 1.711-6.563, 4.483-6.563, 6.195,0.00l 11.685,44.797
		c 1.725,6.548, 8.45,13.328, 14.999,15.054l 44.661,11.699
		C 513.584,154.463, 513.584,157.262, 507.049,158.988z"  />
<glyph unicode="&#x291d;" d="M 173.043,328.236c-1.50-0.26-2.792-0.673-4.297-0.946l-24.632,56.344
	l-73.039-9.348l 29.767-68.585c-154.035-71.612-85.771-240.51-85.771-240.51
	l 235.025,76.148l-64.585,147.654c 115.906,37.515, 212.67-39.197, 212.67-39.197
	l-79.746-24.231l-16.461,33.51c-21.597,4.508-41.229,5.878-67.44,0.943
	l 47.804-109.754l 229.664,76.121C 512.002,226.386, 426.917,376.904, 173.043,328.236z
	 M 78.647,152.678c0.00,0.00-22.649,56.289, 43.253,104.52l 35.05-80.768L 78.647,152.678z"  />
<glyph unicode="&#x291e;" d="M 63.594,384.279L 96.056,384.279L 96.056,351.42L 63.594,351.42zM 476.54,352.021L 448.328,352.021 l0.00,96.203 L 287.65,448.225 l0.00-95.805 l-66.748,0.00 l0.00-127.626 L 64.594,224.794 L 64.594,352.42 
		L 31.996,352.42 l0.00-128.825 l 32.077,0.00 l0.00-32.085 l 60.691,0.00 l0.00-63.483 L 96.056,128.026 l0.00-32.271 l 95.716,0.00 L 191.771,32.375 L 96.056,32.375 
		l0.00,63.381 L 63.772,95.756 l0.00-95.639 L 224.156,0.117 l0.00,95.639 l-32.27,0.00 l0.00,32.271 l-31.694,0.00 l0.00,63.483 l 94.064-0.067
		l0.00-192.329 l 35.886,0.00 l0.00-0.338 l 192.532,0.00 L 482.675,190.853 L 512.00,190.853 L 512.00,352.088 l-35.46,0.00 L 476.54,352.021 z M 322.10,415.354
		l 90.755,0.00 l0.00-125.029 l-90.755,0.00 L 322.10,415.354 z M 476.54,224.595l-28.842,0.00 L 447.698,32.375 l-63.783,0.00 l0.00,95.651 
		l-31.194,0.00 L 352.721,32.375 l-64.475,0.00 L 288.246,224.294 l-31.901,0.00 l0.00,92.143 l 31.806,0.00 l0.00-60.383 L 448.328,256.054 l0.00,60.383 l 28.212,0.00 
		L 476.54,224.595 zM 191.887,384.279L 223.902,384.279L 223.902,351.42L 191.887,351.42zM 96.056,416.576L 191.887,416.576L 191.887,384.279L 96.056,384.279z"  />
<glyph unicode="&#x291f;" d="M 191.50,385.412l-32.52,0.00 l0.00-32.871 L 191.50,352.541 L 191.50,385.412 z M 160.00,160.35l 32.00,0.00 L 192.00,320.398 l-32.00,0.00 L 160.00,160.35 z
	 M 96.344,320.732L-0.275,320.732 l0.00-161.383 l 128.138,0.00 L 127.862,384.577 L 96.344,384.577 L 96.344,320.732 z M 96.507,193.332l-64.293,0.00 
	l0.00,94.132 l 64.293,0.00 L 96.507,193.332 z M 224.118,160.35l 95.112,0.00 l0.00-32.025 l-94.612,0.00 l0.00-33.819 l 129.119,0.00 
	L 353.737,320.732 L 224.118,320.732 L 224.118,160.35 z M 256.031,287.464l 63.293,0.00 l0.00-94.132 L 256.031,193.332 L 256.031,287.464 z
	 M 382.881,160.35l 94.612,0.00 l0.00-32.025 l-94.612,0.00 l0.00-33.819 L 512.00,94.505 L 512.00,320.732 L 382.881,320.732 L 382.881,160.35 z
	 M 416.294,287.464l 61.293,0.00 l0.00-94.132 l-61.293,0.00 L 416.294,287.464 z"  />
<glyph unicode="&#x2921;" d="M 167.618,395.92c 22.771,0.00, 41.228,18.912, 41.228,42.219
		c0.00,23.307-18.457,42.191-41.228,42.191c-22.778,0.00-41.256-18.884-41.256-42.191
		C 126.362,414.833, 144.84,395.92, 167.618,395.92zM 127.362,352.968l0.00-384.092 l 64.343,0.00 c 0.124,6.078, 0.026,256.135-0.061,274.965
		c 64.02-41.849, 128.314-0.842, 128.314-0.842l-0.077-274.123l 64.086,0.00 L 383.968,351.977 
		c-31.493-31.677-65.314-62.478-126.964-63.468
		C 194.515,287.504, 159.224,318.157, 127.362,352.968zM 343.49,480.331c-22.765,0.00-41.242-18.884-41.242-42.191
		c0.00-23.307, 18.478-42.219, 41.242-42.219c 22.776,0.00, 41.242,18.912, 41.242,42.219
		C 384.732,461.446, 366.267,480.331, 343.49,480.331z"  />
<glyph unicode="&#x2922;" d="M 256.015,479.971C 114.634,479.957, 0.036,365.357, 0.036,223.964
	C 0.036,82.613, 114.634-32.00, 256.015-32.00C 397.371-32.00, 511.985,82.613, 512.00,223.964
	C 511.985,365.357, 397.371,479.957, 256.015,479.971z M 256.015,423.682
	c 47.124,0.00, 90.316-16.469, 124.518-43.889c-26.167-31.345-60.728-54.043-98.059-70.071
	c-26.24,50.729-51.59,87.008-68.918,109.21
	C 227.279,421.961, 241.444,423.682, 256.015,423.682z M 167.788,402.875
	c 13.866-16.369, 41.636-52.394, 71.274-108.626
	c-60.285-17.947-120.992-22.172-157.728-22.144c-1.038,0.00-2.083,0.00-3.10,0.015l-0.037,0.00 
	c-6.185,0.00-11.504,0.10-15.948,0.241C 76.584,329.676, 115.872,377.176, 167.788,402.875z
	 M 56.29,223.964c0.00,0.939, 0.035,1.892, 0.092,2.873
	c 5.704-0.199, 13.021-0.383, 21.815-0.383l 0.042,0.00 
	c 40.15,0.27, 110.242,3.612, 181.28,26.04
	c 3.868-8.462, 7.707-17.279, 11.505-26.438
	c-47.436-15.871-84.803-41.144-112.438-66.302
	c-26.594-24.234-44.577-48.228-55.072-64.254
	C 74.125,130.30, 56.304,174.998, 56.29,223.964z M 256.015,24.249
	c-44.458,0.00-85.41,14.688-118.647,39.363c 7.062,11.635, 22.208,33.962, 46.321,57.046
	c 24.817,23.778, 59.057,48.238, 103.777,62.816
	c 15.201-42.608, 28.955-91.318, 39.438-146.143
	C 304.83,28.925, 280.979,24.249, 256.015,24.249z M 369.041,59.716
	c-10.141,49.578-22.883,94.292-36.861,134.198
	c 12.971,1.862, 26.608,2.901, 40.957,2.901l 0.583,0.00 
	c 23.821,0.00, 49.992-2.958, 78.378-9.40C 442.27,134.609, 411.692,89.129, 369.041,59.716z
	 M 373.791,242.466l0.00,0.029 l-0.198,0.00 c-20.479,0.00-39.721-1.877-57.84-5.077
	c-4.423,10.794-8.876,21.162-13.37,31.088
	c 40.364,17.706, 79.104,42.922, 110.476,78.733
	c 24.975-31.715, 40.617-70.981, 42.579-113.874
	C 426.539,239.508, 399.249,242.466, 373.791,242.466z"  />
<glyph unicode="&#x2923;" d="M 257.114,206.896L 107.301,294.035L 7.217,219.205L 165.341,133.117 	zM 13.354,366.677L 107.276,295.266L 256.052,379.664L 162.232,452.00 	zM 256.195,380.398L 405.435,292.00L 499.639,363.411L 350.312,448.734 	zM 256.042,206.896L 347.403,133.117L 504.773,219.205L 405.131,292.035 	zM 415.83,129.236L 348.095,90.939L 254.967,159.034L 160.476,90.939L 95.857,128.236L 95.857,80.568L 254.967-22.243L 415.83,80.568 	z"  />
<glyph unicode="&#x2924;" d="M 367.543,385.033c-26.154,16.265-50.867,22.625-75.522,38.889
	c-15.298,10.325-36.50,34.925-54.306,56.078c-3.418-33.958-13.799-47.757-25.665-57.605
	c-25.125-19.641-40.934-25.524-62.676-37.362
	c-18.261-9.344-117.466-68.35-117.466-195.299
	c0.00-126.894, 107.12-220.334, 226.043-220.334c 118.964,0.00, 222.141,86.058, 222.141,216.426
	C 480.092,316.192, 383.331,375.213, 367.543,385.033z M 369.561,33.02
	c-2.479-2.451-25.175-18.185-51.819-20.678c-26.674-2.438-62.705-3.895-84.411,15.788
	c-3.439,3.433-2.487,8.322,0.00,10.282c 2.466,2.018, 4.434,3.475, 7.41,3.475
	c 2.984,0.00, 2.438,0.00, 3.951-0.967c 9.876-7.90, 24.677-14.247, 56.253-14.247
	c 31.59,0.00, 53.822,8.798, 63.686,16.195c 4.439,3.445, 6.388,0.489, 6.906-1.472
	C 372.025,39.436, 373.007,36.452, 369.561,33.02z M 284.035,70.416
	c 5.407,4.973, 14.345,12.833, 22.723,16.236c 8.406,3.475, 12.776,2.97, 20.72,2.97
	c 7.873,0.00, 16.307-0.49, 22.204-4.455c 5.898-3.937, 9.387-12.762, 11.306-17.623
	c 2.017-4.959,0.00-7.915-3.881-9.891c-3.46-1.946-3.965-0.966-7.425,5.395
	c-3.418,6.388-6.388,12.804-23.675,12.804c-17.26,0.00-22.694-5.898-31.101-12.804
	c-8.378-6.879-11.361-9.331-14.331-5.395
	C 277.619,61.562, 278.60,65.527, 284.035,70.416z M 454.174,176.813
	c0.00-15.342-4.917-43.077-16.797-60.437c-11.823-17.361-19.192-23.824-33.089-22.823
	c-17.777,1.539-53.276,57.008-75.985,58.037
	c-28.592,0.974-90.806-60.041-139.69-60.041c-29.622,0.00-38.476,4.475-48.345,10.939
	c-14.829,10.43-22.226,26.293-21.749,48.072
	c 0.525,38.686, 36.515,74.817, 81.952,75.298
	c 57.703,0.522, 97.741-57.43, 126.838-56.978
	c 24.684,0.479, 72.091,49.089, 95.303,49.089
	C 447.268,217.971, 454.174,192.253, 454.174,176.813z"  />
<glyph unicode="&#x2925;" d="M 156.50,215.289A23.149,23.149 180.00 1 1 202.798,215.289A23.149,23.149 180.00 1 1 156.50,215.289zM 472.01,365.723c-16.812,0.00-31.079-10.508-37.058-25.333l-180.85,60.719
	c-3.024,9.125-11.435,15.731-21.46,15.731c-12.539,0.00-22.721-10.298-22.721-23.022
	c0.00-3.436, 0.819-6.664, 2.166-9.589L 23.975,173.917
	c-0.274,0.009-0.549,0.021-0.826,0.021C 10.364,173.937,0.00,163.574,0.00,150.789
	c0.00-2.298, 0.34-4.515, 0.963-6.61c 0.029-0.097, 0.054-0.195, 0.084-0.291
	c 0.192-0.618, 0.415-1.223, 0.657-1.817c 0.01-0.025, 0.02-0.052, 0.03-0.077
	c 3.463-8.422, 11.744-14.354, 21.415-14.354c 7.064,0.00, 13.385,3.168, 17.631,8.156
	l 169.106-51.387c 0.377-20.688, 17.002-37.384, 37.581-37.384
	c 20.735,0.00, 37.592,17.066, 37.592,38.08c0.00,3.541-0.534,6.942-1.416,10.183
	l 131.03,61.918c 4.228-4.56, 10.267-7.417, 16.976-7.417
	c 12.785,0.00, 23.15,10.364, 23.15,23.149c0.00,7.091-3.191,13.433-8.213,17.679
	l 18.714,94.487c 2.193-0.394, 4.411-0.661, 6.71-0.661
	c 22.15,0.00, 40.111,18.193, 40.111,40.634
	C 512.121,347.519, 494.16,365.723, 472.01,365.723z M 437.238,305.061l-63.539-69.669
	L 341.25,274.749l 93.527,35.573C 435.485,308.499, 436.288,306.746, 437.238,305.061z
	 M 253.476,385.018l 177.518-59.604l-100.122-38.081l-78.528,95.247
	C 252.779,383.37, 253.133,384.182, 253.476,385.018z M 230.192,362.878l 3.837-112.37
	l-35.282-13.42L 230.192,362.878z M 214.362,363.25l-31.23-124.92
	c-0.899,0.105-1.787,0.268-2.711,0.268c-12.538,0.00-22.72-10.311-22.72-22.999
	c0.00-0.059, 0.023-0.104, 0.023-0.176L 48.669,178.83L 214.362,363.25z M 212.806,99.618
	l-166.519,50.724c 0.003,0.149, 0.011,0.297, 0.011,0.447
	c0.00,3.434-0.753,6.689-2.094,9.619l 118.913,40.54
	c 4.168-5.041, 10.292-8.373, 17.304-8.373c 1.481,0.00, 2.868,0.303, 4.26,0.57
	l 35.875-81.629C 217.288,108.104, 214.635,104.10, 212.806,99.618z M 233.512,120.469
	l-35.496,80.757c 3.146,3.936, 5.126,8.869, 5.126,14.373
	c0.00,1.416-0.128,2.809-0.372,4.168l 31.868,12.932l 3.785-110.918
	C 236.769,121.374, 235.063,121.095, 233.512,120.469z M 245.529,366.558l 70.099-85.019
	L 249.29,256.312L 245.529,366.558z M 266.496,117.868
	c-3.832,2.288-8.092,3.865-12.644,4.679l-3.965,116.329l 44.308,17.984
	l 31.80,12.085l 37.186-45.092L 266.496,117.868z M 281.146,110.982l 91.96,100.832
	l 36.166-32.938C 408.771,176.981, 408.50,174.992, 408.50,172.938
	c0.00-0.517, 0.023-1.026, 0.057-1.534L 281.146,110.982z M 431.90,196.08
	c-0.084,0.001-0.167,0.007-0.252,0.007c-4.885,0.00-9.414-1.517-13.149-4.101
	l-34.862,31.355l 63.749,69.902c 1.067-0.847, 2.135-1.685, 3.285-2.427
	L 431.90,196.08z"  />
<glyph unicode="&#x2926;" d="M 377.389,184.083l0.00,50.848 c0.00,29.503-19.874,45.747-55.992,45.747
		c-57.025,0.00-57.674-35.106-57.674-36.591l0.00-5.375 l 29.843,0.00 l 4.76,0.11l 0.582,4.704
		c 0.153,1.12, 1.924,10.893, 20.818,10.893c 11.167,0.00, 23.093-4.188, 23.303-15.927
		l-23.303,0.00 c-41.967,0.00-57.42-13.563-61.972-28.117
		c 0.474,3.287, 0.901,6.596, 0.901,10.103c0.00,35.271-24.747,59.893-60.173,59.893
		c-17.851,0.00-29.579-5.034-36.844-10.068L 161.638,321.172 l-34.387,0.00 l0.00-134.538 
		c0.00-7.211-0.511-17.335-0.516-17.367l-0.292-5.649L 160.00,163.617 c0.00,0.00, 0.66,5.869, 0.797,7.396
		c 7.359-5.362, 19.46-11.089, 37.635-11.089c 29.474,0.00, 51.32,17.356, 57.938,43.647
		c-0.154-1.417-0.242-2.814-0.242-4.198c0.00-24.138, 19.27-39.714, 49.11-39.714
		c 19.873,0.00, 32.667,5.991, 40.329,11.65c 0.108-1.69, 0.571-7.692, 0.571-7.692
		l 32.634,0.00 l-0.55,5.869C 378.223,169.486, 377.389,178.399, 377.389,184.083z
		 M 192.689,186.678c-21.45,0.00-31.052,16.861-31.052,33.567
		c0.00,16.62, 9.552,33.371, 30.892,33.371c 18.483,0.00, 30.898-13.322, 30.898-33.139
		C 223.427,200.89, 210.501,186.678, 192.689,186.678z M 343.028,211.179
		c0.00-2.584-0.902-25.304-32.041-25.304c-12.477,0.00-19.632,4.913-19.632,13.498
		c0.00,11.937, 18.587,13.079, 51.673,13.167L 343.028,211.179 zM 89.884,200.055c-0.038-0.144-4.298-13.85-25.258-13.85
		c-15.646,0.00-27.10,9.046-29.491,22.576l 92.028,0.00 l0.00,17.597 
		c0.00,20.159-13.037,54.30-61.905,54.30c-42.093,0.00-65.274-21.675-65.274-61.048
		c0.00-38.295, 23.478-59.376, 66.12-59.376c 54.201,0.00, 58.471,37.382, 58.509,37.756
		l 0.577,5.913L 91.017,203.923 L 89.884,200.055z M 64.412,254.31
		c 14.607,0.00, 24.703-7.365, 27.017-19.18L 35.822,235.13 
		C 38.778,247.615, 51.941,254.31, 64.412,254.31zM 438.776,203.989L 402.613,276.457L 362.802,276.457L 419.826,169.477L 396.293,124.828L 434.633,124.828L 511.914,276.457L 474.861,276.457 	z"  />
<glyph unicode="&#x2927;" d="M 436.481,262.199C 366.139,432.363, 274.162,480.046, 274.162,480.046
	c-3.907-54.583-73.262-97.646-73.262-97.646L 152.795,406.528
	c 7.756-38.723-17.106-74.915-17.106-74.915
	c-99.656-61.954-61.303-189.423-61.303-189.423l-42.496,18.376
	C 63.507-57.517, 256.856-31.035, 256.856-31.035
	c 275.51,1.854, 218.335,334.827, 218.335,334.827
	C 467.371,276.058, 436.481,262.199, 436.481,262.199z M 249.468,10.088
	c-165.284,1.102-130.979,200.853-130.979,200.853
	c 4.667-16.61, 23.21-24.953, 23.21-24.953
	c 42.187,102.105, 97.37,130.707, 97.37,130.707
	c 2.364-32.735, 43.994-58.585, 43.994-58.585l 28.836,14.506
	c-4.65-23.274, 10.276-44.961, 10.276-44.961
	C 381.948,190.506, 358.938,114.001, 358.938,114.001l 25.528,11.034
	C 365.489-5.832, 249.468,10.088, 249.468,10.088z"  />
<glyph unicode="&#x2928;" d="M 390.038,442.356c-117.219-127.778-218.129-265.021-289.613-419.22
		c 7.184-8.771, 15.812-16.542, 25.505-23.333
		c 63.53-44.192, 174.513-44.277, 245.636,13.351
		c 78.424,67.442, 103.289,217.357, 107.721,398.728
		c 0.36,14.548, 0.606,29.262, 0.721,44.209
		C 478.252,494.237, 420.974,484.173, 390.038,442.356zM 64.699,64.304L 219.97,409.904C 40.783,336.068-8.688,220.132, 64.699,64.304z"  />
<glyph unicode="&#x2929;" d="M 430.559,111.771c-20.125-18.712-6.558-36.478-17.935-59.666
		c-13.789-28.06-63.156-37.768-110.19-41.495
		c-40.363-3.202-111.097-7.32-125.568,20.772
		c-12.23,23.664-5.135,60.434-5.135,90.748c0.00,34.337-3.607,67.152, 5.135,93.398
		c 51.265-3.825, 117.553,17.455, 153.754-5.196
		c 24.205-15.149, 10.449-44.812, 38.428-54.454
		c 19.278,5.278, 8.991,30.724, 7.677,54.454c-0.828,15.297-0.749,36.804,0.00,54.486
		c 1.041,23.828, 10.049,51.51-15.371,51.871
		c-19.965-15.868-4.943-42.295-25.628-57.067
		c-6.593-4.723-20.958-6.734-30.717-7.796
		c-38.41-4.134-98.649-0.768-130.718,5.197c-4.416,47.801-4.03,112.942,0.00,160.809
		c 17.405,17.667, 57.441,18.287, 84.579,18.173
		c 47.53-0.179, 121.648-4.231, 135.804-28.534
		c 7.713-13.221, 1.588-40.904, 15.377-44.107
		c 27.725-6.455, 14.253,44.092, 15.391,67.445c 0.831,17.535, 8.396,28.813, 5.117,41.51
		C 421.568,484.837, 408.211,478.562, 399.812,477.50C 312.607,466.484, 180.161,472.318, 87.182,472.318
		c-11.11,0.00-30.507,5.655-38.433-7.795c-5.368-29.939, 34.667-17.568, 48.681-33.715
		c 4.55-5.246, 11.285-28.436, 12.806-44.092c 4.055-41.559,0.00-105.066,0.00-166.024
		c0.00-64.372, 4.791-129.334,0.00-168.587c-1.664-13.697-9.759-35.776-12.806-38.897
		c-17.462-17.828-63.608,1.896-58.952-36.327
		c 16.222-11.146, 39.713-3.564, 61.511-2.583c 42.224,1.88, 93.507,0.00, 143.493,0.00
		c 51.607,0.00, 104.45,3.515, 146.059,0.00c 16.829-1.424, 32.284-11.684, 46.139-2.583
		c 10.686,14.056, 2.768,32.948, 5.134,51.871
		C 445.295,59.524, 477.737,102.602, 430.559,111.771z"  />
<glyph unicode="&#x292a;" d="M 358.208,448.00c-24.584,0.00-63.466,0.00-63.466,0.00s-10.371,32.00-58.278,32.00
			c-47.935,0.00-44.713-20.834-44.713-38.631l0.00-58.434 L 160.00,352.00L 59.96,352.00 
			c0.00,0.00-28.266-18.244-28.266-57.649c0.00-39.406, 12.252-181.687, 96.473-194.406
			c 99.643-15.041, 116.70,30.113, 116.70,35.533c0.00,22.891, 0.582,57.529, 0.582,57.529
			s 29.182-54.355, 73.255-54.355c 44.057,0.00, 65.164-24.691, 65.164-50.10
			c0.00-25.449,0.00-47.043,0.00-47.043s 2.882-29.43-23.016-29.43c-25.946,0.00-55.299,0.00-55.299,0.00
			s-18.157,13.777-18.157,32.824c0.00,19.076, 8.856,24.242, 19.243,24.242
			c 10.338,0.00, 13.361-1.174, 13.361-1.174L 320.00,108.078 c0.00,0.00-77.957,0.52-77.957-61.773
			C 242.043-16.006, 285.686-32.00, 320.657-32.00c 34.987,0.00, 57.035,0.00, 57.035,0.00
			s 102.899,12.895, 102.899,211.201c0.00,198.31-32.147,220.711-41.201,235.991
			C 430.288,430.427, 382.872,448.00, 358.208,448.00z M 333.19,237.806
			c0.00,0.00, 5.876,38.352, 28.676,38.352C 384.661,276.157, 416.00,224.952, 416.00,224.952
			S 344.547,237.806, 333.19,237.806zM 170.512,393.843L 170.478,474.372L 52.804,374.511L 146.714,374.426 		z"  />
<glyph unicode="&#x292c;" d="M 418.016,317.984C 418.016,407.463, 345.479,480.00, 256.00,480.00
	C 166.521,480.00, 93.983,407.463, 93.983,317.984c0.00-28.163, 7.19-54.645, 19.829-77.717
	l 142.139-272.238l 142.242,272.249l-0.001,0.00 
	C 410.827,263.348, 418.016,289.825, 418.016,317.984z M 256.00,256.696c-35.347,0.00-64.00,28.654-64.00,64.00
	s 28.653,64.00, 64.00,64.00s 64.00-28.654, 64.00-64.00S 291.347,256.696, 256.00,256.696z"  />
<glyph unicode="&#x292d;" d="M 192.191,380.857c0.00-12.91,0.00-60.485,0.00-60.485l-63.638,0.00 l0.00-96.181 l 63.638,0.00 l0.00-256.135 l 97.069,0.00 
	L 289.26,224.191 l 84.168,0.00 c0.00,0.00, 6.674,51.322, 9.885,96.508c-9.23,0.00-93.666,0.00-93.666,0.00
	s0.00,34.136,0.00,42.921c0.00,8.807, 11.564,20.661, 23.01,20.661l 71.791,0.00 L 384.447,480.00 l-83.57,0.00 
	C 189.56,480.00, 192.191,393.737, 192.191,380.857z"  />
<glyph unicode="&#x292e;" d="M 368.373,159.504L 433.968,159.504L 511.96,448.00L 409.14,448.00 	zM 390.545,112.874c-31.824,0.00-57.608-25.282-57.608-56.446
		C 332.937,25.266, 358.721,0.00, 390.545,0.00s 57.608,25.266, 57.608,56.428
		C 448.153,87.592, 422.369,112.874, 390.545,112.874zM 164.875,362.912L 351.083,362.912L 368.817,448.00L 85.125,448.00L 0.04,0.00L 93.976,0.00L 118.654,128.00L 303.002,128.00L 320.735,191.233L 132.713,191.233 	z"  />
<glyph unicode="&#x292f;" d="M 410.491,143.592c 1.333,7.63, 2.264,15.291, 2.309,22.97
	c 0.354,96.219-48.766,133.742-100.842,165.789
	c 15.067-84.248-33.653-136.275-94.231-118.056
	C 306.25,368.346, 177.449,368.739, 216.81,480.00
	c-60.534-45.75-121.261-173.829-121.068-267.294
	c 0.029-24.686, 2.351-47.623, 6.683-68.642
	c-43.56-18.58-70.914-44.901-70.914-74.085
	c0.00-56.102, 100.841-101.837, 224.511-101.837c 123.658,0.00, 224.467,45.735, 224.467,101.837
	C 480.489,98.927, 453.506,125.043, 410.491,143.592z M 335.645,63.827
	c-0.117-0.126-0.295-0.251-0.398-0.394c-5.84-5.159-12.288-9.784-19.385-13.891
	c-0.62-0.346-1.30-0.692-1.951-1.07c-2.823-1.558-5.767-3.021-8.813-4.389
	c-0.858-0.395-1.73-0.818-2.617-1.213c-7.437-3.177-15.423-5.71-23.984-7.645
	c-1.195-0.269-2.424-0.473-3.636-0.692c-3.225-0.645-6.535-1.212-9.907-1.636
	c-1.33-0.173-2.647-0.347-3.978-0.473c-4.614-0.519-9.30-0.865-14.165-0.944
	c-3.386-0.094-6.757,0.048-10.084,0.30c-0.873,0.047-1.73,0.126-2.617,0.204
	c-2.825,0.314-5.604,0.66-8.384,1.165c-0.518,0.094-1.05,0.14-1.583,0.22
	c-3.327,0.645-6.624,1.463-9.847,2.406c-0.414,0.127-0.799,0.269-1.183,0.347
	c-3.046,0.944-6.003,1.981-8.93,3.193c-0.311,0.109-0.607,0.205-0.932,0.378
	c-40.114,16.74-69.274,58.305-67.707,116.073c-0.059,0.00-0.133-0.015-0.208-0.046
	c 0.888,32.188, 11.253,69.38, 34.749,110.159
	c-16.752-80.315, 28.152-140.161, 71.387-140.759
	c 48.75-0.393, 77.672,48.11, 91.452,111.654c 25.891-21.05, 39.271-50.391, 41.017-80.299
	c-0.089,0.017-0.163,0.048-0.207,0.064
	C 375.686,122.652, 362.66,88.056, 335.645,63.827z"  />
<glyph unicode="&#x2930;" d="M 112.099,352.439C 50.188,352.439,0.00,302.251,0.00,240.341
	s 50.188-112.099, 112.099-112.099s 112.099,50.188, 112.099,112.099
	S 174.009,352.439, 112.099,352.439z M 400.099,352.439
	C 338.188,352.439, 288.00,302.251, 288.00,240.341s 50.188-112.099, 112.099-112.099
	s 112.099,50.188, 112.099,112.099S 462.009,352.439, 400.099,352.439z"  />
<glyph unicode="&#x2931;" d="M 483.217,309.389c-12.257-3.156-10.56-20.069-18.085-27.917
	c-28.678-4.795-56.076-10.894-82.621-17.744
	c-3.161,12.135-15.996,14.754-20.681,25.355
	c 4.247,4.293, 5.597,11.414, 10.328,15.24c 8.76,0.687, 20.959-1.968, 25.817,2.533
	c-5.689,12.159-10.294,25.408-30.998,22.846
	c-13.584-13.341, 3.797-29.955-18.073-38.067
	c-10.133,10.329-32.477,8.69-43.902,17.755
	c 2.863,4.807, 3.301,12.002, 5.147,17.779c 6.879,0.022, 14.772-0.964, 18.097,2.533
	c 0.081,19.153-35.869,34.577-38.743,7.605
	c-3.37-10.935, 12.292-3.127, 10.318-12.677c-0.255-6.504-1.455-12.113-5.137-15.24
	c-23.186-0.086-48.194,1.679-64.601-5.066c-2.129,6.342-7.058,9.96-7.737,17.772
	c 8.32,1.12, 14.991,3.861, 12.92,15.211c-5.799,9.014-27.803,10.307-36.164,2.545
	l0.00-17.756 c 2.18-5.481, 16.474,0.941, 18.078-5.083
	c 0.832-5.966, 4.074-9.533, 2.574-17.767c-20.906-4.854-32.511-18.806-49.073-27.941
	c-18.055,9.101-0.011,38.195-23.23,40.642
	c-13.849,1.442-27.883-15.702-20.67-38.074
	c 74.063,6.215, 7.623-25.725, 15.499-71.08
	c-36.85-8.633-69.061-21.836-105.888-30.456
	c-7.998,0.634-4.375,12.613-15.511,10.155
	c-20.186-1.442-25.731-35.153-15.494-50.757c 11.852-0.657, 12.476-2.70, 23.249,0.00
	c 6.786,5.159, 6.948,16.851, 10.33,25.367
	c 35.753,11.402, 67.151,27.086, 105.906,35.534
	c 4.511-17.542, 15.644-28.598, 25.81-40.601
	c-6.30-16.365-23.786-6.544-33.561-17.762c-3.468-21.628, 21.872-26.925, 38.744-20.313
	c 1.384,9.821-6.602,10.445-7.757,17.773c 5.928,3.485, 6.06,12.661, 12.91,15.234
	c 11.518-6.463, 33.503-2.608, 46.492-7.617
	c 5.984-21.12-13.428-17.276-12.896-32.995
	c 6.284-16.434, 43.094-12.879, 38.721,10.156c-0.468,7.985-13.901,3.242-12.915,12.694
	c-1.857,7.756, 2.661,9.244, 2.579,15.211c 21.264,1.096, 35.645,9.002, 51.686,15.234
	c 2.897-7.306, 5.424-14.957, 10.317-20.301c-3.347-6.879-11.483-9.036-10.317-20.313
	c 14.415-10.525, 41.155,3.221, 41.316,22.852c-4.535,8.933-21.294,1.962-25.852,5.078
	c-1.984,5.632-5.413,9.891-5.147,17.738c 16.273,3.497, 24.178,15.176, 41.329,17.784
	c 16.86-8.09, 11.702-20.254, 12.892-35.522
	c 18.983,0.819, 32.545,6.936, 33.605,25.367
	c-12.025,10.859-37.023-4.789-38.753,17.772
	c 13.236,5.608, 19.157,18.396, 30.998,25.379c 6.082,0.069, 7.605-4.363, 15.499-2.551
	c 0.613-11.229, 1.858-21.847, 12.915-22.828c 19.378-2.735, 19.123,31.438, 10.341,40.606
	c-15.188,1.316-21.858-19.047-38.755-7.622c 4.442,9.96, 0.553,27.08, 2.585,33.007
	c 25.137,5.742, 50.723,11.056, 77.474,15.204
	c 8.136-16.093, 35.80-24.085, 46.499-5.043
	C 509.876,288.206, 503.379,305.523, 483.217,309.389z M 235.267,187.569
	c-26.147,3.521-51.236,60.503-18.085,76.159
	c 25.73,12.101, 69.793-8.097, 72.321-30.486
	C 292.122,210.04, 258.966,184.384, 235.267,187.569z M 348.904,215.487
	c-44.907-1.085-24.074,74.242, 7.755,48.241
	C 355.633,246.123, 360.825,222.399, 348.904,215.487z"  />
<glyph unicode="&#x2932;" d="M 462.729,127.432c-3.644,2.483-7.789,3.719-11.881,3.719
	c-6.527,0.00-12.955-3.013-16.964-8.631c-10.406-14.546-21.612-25.731-34.164-34.073
	c-14.677-9.756-37.916-24.746-38.07-24.883l-0.027-0.027
	c-5.841-3.763-9.357-10.146-9.357-17.03l 0.057-27.092l-63.636,26.744
	c-2.549,1.028-5.28,1.61-8.096,1.61l-1.177-0.04
	c-4.763-0.279-9.582-0.39-14.356-0.39
	c-70.71,0.041-135.312,28.52-168.761,75.152l-0.224,0.263l 0.21-0.263
	c-0.645,0.929-1.43,1.734-2.256,2.58l-0.209,0.209l-0.196,0.263
	c-13.174,19.319-20.052,40.249-20.031,62.066c0.00,38.831, 21.705,73.86, 56.204,98.98
	c 34.535,25.162, 81.992,40.636, 134.253,40.636c 38.059,0.00, 74.841-8.257, 106.414-23.955
	l 1.021-0.50l 0.07-0.014c 15.786-7.98, 28.448-18.194, 37.245-29.797
	c 8.798-11.56, 13.686-24.564, 13.686-37.874c0.00-21.582-12.535-42.094-34.457-57.764
	c-24.33-17.417-56.87-26.896-91.691-26.896c-8.784,0.00-17.581,0.666-26.109,1.846
	l-0.282,0.069l-0.015,0.00 c-24.385,3.663-47.68,11.561-67.486,22.954l-0.427,0.21
	l-0.105,0.014c-38.64,22.636-61.275,56.277-61.275,92.611
	c0.00,2.803, 0.182,5.606, 0.441,8.382c-15.976-11.27-28.897-24.703-37.833-39.499
	c 9.826-38.568, 37.665-73.625, 78.875-97.343l 1.534-0.734l 0.063-0.028
	c 23.827-13.323, 51.526-22.664, 80.291-26.953l 0.504-0.055l 0.028,0.00 
	c 10.422-1.457, 21.122-2.249, 31.797-2.249c 43.631,0.00, 84.841,12.38, 115.994,34.669
	c 33.461,23.926, 51.517,56.097, 51.546,90.766c0.00,42.065-27.609,81.203-74.644,104.56
	l-1.078,0.513l-0.029,0.028c-36.993,18.181-79.883,27.826-124.077,27.826
	c-61.002,0.014-118.557-18.209-161.945-51.115
	c-45.237-34.307-69.918-80.147-69.925-129.29c0.00-30.88, 10.093-61.288, 29.29-88.046
	c 0.784-1.11, 1.73-2.109, 2.766-3.109l 0.238-0.166L 64.625,96.051
	c 41.209-55.096, 117.647-89.515, 200.432-89.474c 3.654,0.00, 7.353,0.057, 11.053,0.167
	l 0.725,0.027l 87.981-37.042c 2.576-1.068, 5.351-1.582, 8.11-1.582
	c 4.007,0.00, 7.969,1.11, 11.401,3.345c 5.771,3.775, 9.288,10.20, 9.288,17.016
	l 0.07,46.979l 1.441,0.972c 8.152,5.273, 19.358,12.588, 27.778,18.167
	c 16.429,10.936, 31.529,25.828, 44.809,44.37c 2.564,3.565, 3.796,7.688, 3.796,11.739
	C 471.51,117.161, 468.44,123.462, 462.729,127.432z M 355.752,438.309
	c 21.53-2.109, 42.022-7.855, 60.176-16.986c 2.898-1.50, 6.163-2.249, 9.413-2.249
	c 2.716,0.00, 5.533,0.555, 8.151,1.638c 5.632,2.386, 9.905,7.133, 11.698,12.906
	c 0.60,1.971, 0.855,3.941, 0.855,5.871c0.00,7.855-4.611,15.197-12.061,18.514
	l-0.072,0.041l-0.055,0.027C 405.072,472.409, 371.581,480.00, 337.109,480.00
	c-47.205,0.00-91.776-14.128-125.436-39.637c-9.447-7.175-17.663-15.017-24.758-23.371
	c 34.556,17.14, 74.597,26.341, 116.267,26.341
	C 321.015,443.333, 338.622,441.612, 355.752,438.309z M 303.464,199.849l 0.141,0.00 
	c 9.116-1.304, 18.587-1.956, 28.00-1.956c 24.512,0.00, 48.086,4.483, 69.027,12.713
	c 5.015,7.993, 7.691,16.307, 7.691,24.69c0.00,7.286-2.129,14.544-5.955,21.58
	c-19.483-11.561-44.57-18.223-70.764-18.223c-7.479,0.00-14.892,0.513-22.047,1.554
	c-48.648,7.189-87.393,32.476-103.431,65.466
	c-13.825-3.512-26.873-8.244-38.898-13.976
	C 187.987,245.523, 238.806,209.384, 303.464,199.849z M 414.696,402.114l-1.347,0.625
	l-0.027,0.014c-32.721,16.266-70.681,24.871-109.803,24.871
	C 249.857,427.637, 199.249,411.607, 161.079,382.656
	c-12.894-9.771-23.875-20.624-32.833-32.253c 39.164,20.512, 84.968,31.81, 132.86,32.365
	c 13.656,2.665, 27.858,4.081, 42.413,4.081c 33.044,0.00, 64.923-7.273, 92.209-21.026
	l 1.081-0.514l 0.027-0.027c 18.56-9.632, 31.851-22.983, 37.959-37.944
	c 17.384-15.35, 30.185-33.475, 37.498-53.238
	c 4.929,11.298, 7.605,23.164, 7.605,35.308
	C 479.899,346.60, 455.835,381.269, 414.696,402.114z"  />
<glyph unicode="&#x2933;" d="M 479.362-32.00L 255.795,480.00L 32.638-31.061L 223.868-31.061L 223.868,65.39L 163.056,106.974L 181.683,134.214L 223.868,105.367L 223.868,184.696L 287.867,184.696L 287.867,134.054L 332.775,156.313L 347.431,126.747L 287.867,97.224L 287.867,69.265L 370.60,109.743L 385.104,80.101L 287.867,32.525L 287.867-31.061L 395.873-31.061L 395.873-32.00 	z"  />
<glyph unicode="&#x2934;" d="M0.00-31.963L 512.00-31.963 L 512.00,480.00 L0.00,480.00 L0.00-31.963 z M 97.111,384.944l 318.815,0.00 l0.00-319.833 L 97.111,65.111 
	L 97.111,384.944 z"  />
<glyph unicode="&#x2935;" d="M 257.454,296.081l-16.617-16.078c-18.095,47.006-63.514,79.615-116.182,79.615
	c-68.698,0.00-124.588-55.89-124.588-124.588c0.00-68.707, 55.89-124.604, 124.588-124.604
	c 5.631,0.00, 11.237,0.484, 16.806,1.236l 115.806-112.499l 152.818,148.454l-11.512,11.449
	l 113.359,79.537L 511.933,440.837 L 313.194,242.099L 257.454,296.081z M 491.226,259.335
	L 244.95,65.523l-92.737,82.126c-8.539-2.503-17.61-3.879-26.979-3.879
	c-51.783,0.00-93.737,40.773-93.737,91.063c0.00,50.275, 41.954,91.064, 93.737,91.064
	c 51.761,0.00, 93.755-40.789, 93.755-91.064c0.00-13.489-3.112-26.267-8.523-37.777
	l 37.903-61.404L 491.397,386.19L 491.226,259.335z"  />
<glyph unicode="&#x2937;" d="M 200.525,354.824C 75.816,294.907, 64.264,104.729, 64.264,104.729
		c-9.484-8.484-89.469-94.041-55.861-104.553
		c 33.608-10.545, 65.979,88.453, 65.979,88.453s 144.613-62.063, 308.586,57.446
		C 546.94,265.57, 507.677,448.609, 507.677,448.609
		C 422.231,336.577, 325.219,414.741, 200.525,354.824z M 298.827,246.013
		C 181.011,204.309, 171.857,208.059, 98.955,133.453c0.00,0.00, 48.933,100.914, 171.124,145.912
		c 100.801,28.159, 128.931,17.926, 164.104,56.318
		C 434.183,335.684, 400.723,268.252, 298.827,246.013z"  />
<glyph unicode="&#x2938;" d="M 320.792,345.053l0.00-57.982 L 192.93,287.071 l0.00,49.982 c0.00,26.547, 16.432,46.043, 31.187,46.043
	l 65.10,0.00 L 289.217,480.00 l-72.10,0.00 C 150.345,480.00, 96.034,419.476, 96.034,345.053l0.00-57.982 L 0.137,287.071 l0.00-95.914 l 95.897,0.00 
	L 96.034-32.00 l 96.896,0.00 L 192.93,191.157 l 127.862,0.00 L 320.792-32.00 l 95.913,0.00 L 416.705,191.157 l 63.879,0.00 l0.00,95.914 l-63.879,0.00 l0.00,49.982 
	c0.00,26.547, 16.415,46.043, 31.152,46.043l 64.135,0.00 L 511.992,480.00 l-70.135,0.00 
	C 375.085,480.00, 320.792,419.476, 320.792,345.053z"  />
<glyph unicode="&#x2939;" d="M 256.109,64.943c-25.394,0.00-50.671,6.113-73.10,17.679
			c-21.688,11.183-40.837,27.487-55.379,47.151l 26.533,19.621
			c 23.824-32.217, 61.935-51.451, 101.946-51.451c 69.864,0.00, 126.703,56.838, 126.703,126.702
			l 33.00,0.00 C 415.813,136.585, 344.17,64.943, 256.109,64.943zM 128.00,288.00A32.00,32.00 180.00 1 1 192.00,288A32.00,32.00 180.00 1 1 128.00,288zM 256.00,320.00A32.00,32.00 180.00 1 1 320.00,320A32.00,32.00 180.00 1 1 256.00,320zM 256.00,430.00c 55.024,0.00, 106.756-21.428, 145.664-60.336C 440.572,330.755, 462.00,279.024, 462.00,224.00
			s-21.428-106.756-60.336-145.664S 311.024,18.00, 256.00,18.00s-106.755,21.428-145.664,60.336
			C 71.428,117.244, 50.00,168.976, 50.00,224.00s 21.428,106.755, 60.336,145.664
			C 149.245,408.572, 200.976,430.00, 256.00,430.00 M 256.00,480.00C 114.615,480.00,0.00,365.385,0.00,224.00s 114.615-256.00, 256.00-256.00
			s 256.00,114.615, 256.00,256.00S 397.385,480.00, 256.00,480.00L 256.00,480.00z"  />
<glyph unicode="&#x293a;" d="M 415.608,447.50L 384.00,480.00L 64.00,480.00 L 31.578,447.50l0.00-286.976 L 61.50,128.00L 320.00,128.00 l0.00-63.64 L 63.177,63.641l0.00-64.076 
		l 25.608-31.583L 384.00-32.019 L 415.608,0.00L 415.608,121.595 L 512.00,262.371L 512.00,416.00 l-96.392-163.67L 415.608,447.50 z M 320.00,224.00L 127.804,224.00 
		l 0.376,160.00L 320.00,384.00 L 320.00,224.00 z"  />
<glyph unicode="&#x293b;" d="M 256.00,479.963c-141.357,0.00-255.947-114.614-255.947-255.963
	c0.00-141.349, 114.59-255.962, 255.947-255.962c 141.348,0.00, 255.947,114.613, 255.947,255.962
	C 511.947,365.349, 397.348,479.963, 256.00,479.963z M 415.947,192.019l-128.00,0.00 l0.00-128.00 l-64.00,0.00 l0.00,128.00 l-128.00,0.00 l0.00,64.00 l 128.00,0.00 
	l0.00,128.00 l 64.00,0.00 l0.00-128.00 l 128.00,0.00 L 415.947,192.019 z"  />
<glyph unicode="&#x293c;" d="M 352.543,187.446c-21.198,0.00-38.377-24.948-38.377-55.725
			c0.00-30.772, 17.179-55.719, 38.377-55.719s 38.38,24.946, 38.38,55.719
			C 390.923,162.498, 373.741,187.446, 352.543,187.446z M 167.997,187.446
			c-21.196,0.00-38.379-24.948-38.379-55.725c0.00-30.772, 17.183-55.719, 38.379-55.719
			c 21.198,0.00, 38.381,24.946, 38.381,55.719
			C 206.378,162.498, 189.195,187.446, 167.997,187.446z M 502.315,115.685
			c 5.843,21.368, 8.994,46.651, 9.626,76.587
			c-0.15,81.171-39.423,109.877-46.972,123.361
			c 11.125,61.45-1.852,89.425-7.882,99.018c-22.25,7.833-77.414-20.14-107.543-39.862
			c-49.136,14.218-152.976,12.842-191.916-3.668
			C 85.778,422.025, 47.767,414.229, 47.767,414.229s-24.57-43.567-6.49-107.311
			C 17.634,277.111, 0.02,256.015, 0.02,200.101c0.00-31.493, 3.745-59.689, 12.201-84.308
			c-0.59,0.004, 1.596-5.515, 2.001-5.519c 2.022-5.298, 4.284-10.439, 6.789-15.411
			c-0.29-0.004, 2.48-5.438, 2.891-5.429
			c 22.955-41.229, 65.87-69.188, 132.144-81.771
			c 35.774-7.613, 78.009-8.956, 126.455-8.956c 72.091,0.00, 118.833,11.033, 149.545,29.13
			c 27.647,13.463, 47.672,32.951, 60.774,61.412c 0.706-0.021, 3.133,5.408, 2.375,5.433
			c 2.022,4.92, 3.874,10.069, 5.525,15.483
			C 502.115,110.179, 504.038,115.70, 502.315,115.685z M 433.525,69.657
			c-1.756-1.618-3.622-3.224-5.622-4.81
			c-29.834-23.649-78.755-33.141-145.403-33.141c-103.878,0.00-158.891,16.242-186.748,31.964
			c-4.013,2.265-7.56,4.524-10.719,6.741
			c-12.094,16.467-18.872,37.55-18.872,63.927c0.00,27.572, 18.837,87.74, 94.862,87.74
			c 7.527,0.00, 56.683-4.585, 104.15-4.585c 42.145,0.00, 84.776,4.585, 90.245,4.585
			c 74.669,0.00, 93.642-52.279, 93.642-92.635
			C 449.061,106.545, 444.207,86.271, 433.525,69.657z"  />
<glyph unicode="&#x293d;" d="M 257.376,478.227C 107.296,498.01, 59.575,322.912, 168.924,252.713
	c-28.156-14.577-26.307-88.809, 3.852-99.382
	c-71.051-8.14-84.229-108.271-46.134-149.074c 46.345-49.673, 188.912-46.383, 230.706,0.00
	c 29.184,32.386, 33.231,99.127, 7.659,129.939
	c-23.285,28.121-140.221,32.344-138.394,76.469
	c 1.26,30.813, 43.549,25.957, 69.207,38.218
	c 48.275,23.082, 76.658,92.151, 57.683,145.253
	c 10.762,2.032, 19.98,5.621, 30.756,7.646L 384.259,478.227 
	C 338.518,449.649, 291.365,473.764, 257.376,478.227z M 303.525,76.864
	c 4.979-54.958-106.335-57.391-119.208-19.12
	c-10.835,32.256, 2.651,41.387, 34.593,49.688
	C 255.075,116.853, 300.176,113.635, 303.525,76.864z M 272.77,317.676
	c-18.479-13.689-54.828-15.036-73.067,0.00
	C 143.433,440.255, 329.067,431.467, 272.77,317.676z"  />
<glyph unicode="&#x293e;" d="M 360.359,395.681l-1.223,0.00 c-9.313,27.953-24.74,49.092-46.242,63.417
	c-21.73,14.097-45.744,21.139-72.004,21.139
	c-45.745-0.914-80.497-18.599-104.284-53.028
	c-24.417-34.188-36.607-76.358-36.607-126.485c0.00-51.537, 11.57-94.164, 34.751-127.879
	c 23.384-34.444, 58.755-51.888, 106.139-52.345
	c 55.434,0.457, 94.85,28.193, 118.247,83.17l 1.223,0.00 l0.00-83.855 
	c0.00-6.249-0.416-15.938-1.223-29.108c-1.682-13.641-6.129-28.315-13.357-44.025
	c-7.244-14.795-18.922-27.387-35.063-37.775c-15.938-11.315-38.178-17.215-66.734-17.672
	c-27.51,0.00-50.787,7.162-69.816,21.489c-19.471,14.083-30.84,36.968-34.146,68.618
	l-24.19,0.00 c 2.473-41.124, 15.589-70.474, 39.389-88.038
	c 23.182-16.853, 52.558-25.291, 88.145-25.291c 35.182,0.00, 62.584,6.57, 82.244,19.753
	c 19.445,12.70, 33.395,28.546, 41.902,47.48
	c 8.479,18.948, 13.543,36.97, 15.197,54.063c 1.236,17.107, 1.867,29.338, 1.867,36.741
	L 384.574,471.932 L 360.359,471.932 L 360.359,395.681 z M 330.566,192.233c-19.459-31.647-49.346-47.813-89.676-48.513
	c-38.07,0.699-67.046,16.408-86.906,47.13
	c-20.064,29.806-30.09,66.426-30.09,109.873c0.00,40.666, 9.811,76.586, 29.485,107.778
	c 19.001,31.191, 48.191,47.357, 87.511,48.513
	c 40.331-1.156, 70.217-16.852, 89.676-47.128
	c 19.447-30.278, 29.174-66.656, 29.174-109.163
	C 359.74,258.204, 350.014,222.04, 330.566,192.233z"  />
<glyph unicode="&#x293f;" d="M 417.517,402.122c-44.082,28.869-100.206,46.348-161.54,46.348
	c-89.744,0.00-168.578-37.138-214.218-93.235l 140.018-150.01L 417.517,402.122z
	 M 443.887,382.454l-119.381-99.711l 143.672-153.925
	c 27.521,32.731, 43.628,72.108, 43.628,114.524
	C 511.806,297.046, 486.002,345.89, 443.887,382.454z M 64.618,107.369l 92.562,77.311
	L 23.171,328.251c-14.707-25.879-22.977-54.622-22.977-84.91
	C 0.194,191.134, 24.577,143.567, 64.618,107.369z M 89.457,86.421
	c 1.652-0.896, 3.235-1.78, 4.558-2.619c-8.604-23.615-20.521-50.402-39.76-78.019
	c 44.956-19.537, 96.664,10.299, 132.688,40.026
	c 21.818-4.861, 45.027-7.565, 68.783-7.565c 75.349,0.00, 143.082,26.258, 189.90,67.835
	l-145.719,156.119L 89.457,86.421z"  />
<glyph unicode="&#x2940;" d="M 256.066,479.96c-141.433,0.00-256.027-91.326-256.027-204.048
	c0.00-97.897, 86.557-179.716, 202.04-199.46C 199.42,43.804, 192.658,6.584, 178.406-32.00
	c 56.488,15.047, 105.88,65.504, 140.069,110.007
	c 111.165,22.235, 193.524,102.406, 193.524,197.906
	C 511.999,388.634, 397.405,479.96, 256.066,479.96z M 365.821,150.239
	c-3.43-0.634-6.858-1.175-10.365-1.54c-3.697-0.363-7.429-0.618-11.206-0.618
	c-3.285,0.00-6.508,0.271-9.713,0.539c 40.107,28.872, 66.248,75.074, 66.248,127.292
	c0.00,57.361-31.473,107.452-78.438,135.275c 7.111,1.381, 14.395,2.206, 21.903,2.206
	c 67.963,0.00, 123.054-59.392, 123.054-132.688
	C 467.304,215.426, 423.482,161.254, 365.821,150.239z"  />
<glyph unicode="&#x2942;" d="M 431.475,480.00L 292.398,480.00 c-36.47,0.00-82.376-5.372-120.846-36.925
	c-29.069-24.875-43.218-59.114-43.218-90.04c0.00-52.392, 40.521-105.507, 112.082-105.507
	c 6.749,0.00, 14.134,0.686, 21.631,1.328c-3.378-8.029-6.793-14.751-6.793-26.189
	c0.00-20.838, 10.801-33.575, 20.253-45.691c-30.35-2.007-87.08-5.357-128.964-30.859
	c-39.833-23.569-52.019-57.809-52.019-81.997c0.00-49.735, 47.292-96.121, 145.195-96.121
	c 116.149,0.00, 177.59,63.83, 177.59,127.039c0.00,46.312-27.009,69.188-56.70,94.055
	l-24.327,18.787c-7.394,6.081-17.513,14.109-17.513,28.897
	c0.00,14.78, 10.119,24.21, 18.875,32.94c 28.357,22.16, 56.716,45.677, 56.716,95.397
	c0.00,51.086-32.433,77.96-47.959,90.719l 41.914,0.00 L 431.475,480.00z M 372.122,68.798
	c0.00-41.633-34.477-72.537-99.311-72.537c-72.228,0.00-118.831,34.254-118.831,81.953
	c0.00,47.728, 43.218,63.814, 58.056,69.187c 28.379,9.444, 64.834,10.773, 70.908,10.773
	c 6.756,0.00, 10.119,0.00, 15.542-0.649C 349.839,121.234, 372.122,103.051, 372.122,68.798z
	 M 318.074,285.161c-10.815-10.736-29.069-18.795-45.944-18.795
	c-58.048,0.00-84.376,74.588-84.376,119.587c0.00,17.481, 3.378,35.597, 14.838,49.72
	c 10.808,13.445, 29.706,22.182, 47.27,22.182c 56.048,0.00, 85.102-75.26, 85.102-123.623
	C 334.964,322.116, 333.586,300.643, 318.074,285.161z"  />
<glyph unicode="&#x2943;" d="M 52.921-25.085c 65.963,34.888, 209.261,110.737, 209.261,110.737l 99.957,52.896
		l-62.214,58.16L 52.921-25.085z M 0.181,476.955
		C 0.173,476.67, 0.089,476.449, 0.089,476.157c0.00-24.14,0.00-251.817,0.00-251.817
		s0.00-240.618,0.00-256.312l 277.725,249.36L 0.181,476.955z M 374.038,303.833l-111.856,59.203
		c0.00,0.00-168.413,89.126-220.985,116.964l 259.18-242.336L 374.038,303.833z M 502.885,235.646
		c-8.619,4.265-69.527,36.651-100.443,53.112l-79.954-71.782l 67.904-63.483
		c 22.109,11.704, 99.855,52.852, 111.674,59.095
		C 515.873,219.884, 514.533,229.909, 502.885,235.646z"  />
<glyph unicode="&#x2944;" d="M 416.146,320.496L 416.146,416.00 L 384.00,416.00 l0.00-95.504 l-95.504,0.00 l0.00-32.146 L 384.00,288.351 l0.00-95.504 l 32.146,0.00 l0.00,95.504 l 95.504,0.00 
	l0.00,32.146 L 416.146,320.496 z M 287.396,416.00c0.00,0.00-103.279,0.00-137.717,0.00
	C 87.933,416.00, 29.81,367.668, 29.81,313.477c0.00-55.364, 42.105-100.843, 104.909-100.843
	c 4.384,0.00, 8.613-0.296, 12.772,0.00c-4.074-7.794-6.982-16.803-6.982-25.925
	c0.00-12.17, 5.192-22.583, 12.545-31.46c-5.304,0.046-10.783-0.067-16.386-0.402
	c-37.307-2.236-68.08-13.345-91.121-32.581C 26.782,109.68, 12.796,93.517, 5.569,76.00
	c-3.605-8.154-5.539-16.62-5.539-25.141c0.00-0.275, 0.013-0.547, 0.018-0.82
	c-0.005-0.327-0.018-0.654-0.018-0.982c0.00-49.744, 64.534-80.863, 141.014-80.863
	c 87.197,0.00, 135.337,49.446, 135.337,99.191c0.00,0.123-0.003,0.241-0.003,0.363
	c0.00,0.071, 0.003,0.143, 0.003,0.213c0.00,0.50-0.015,0.983-0.02,1.478
	c-0.007,0.672-0.012,1.347-0.026,2.009c-0.012,0.532-0.029,1.058-0.047,1.583
	c-1.108,36.537-13.435,59.36-48.048,83.887
	c-12.468,8.782-36.267,30.23-36.267,42.811c0.00,14.77, 4.222,22.041, 26.439,39.409
	c 22.782,17.79, 38.893,39.31, 38.893,68.424c0.00,34.65-15.439,76.049-44.392,76.049
	l 43.671,0.00 L 287.396,416.00z M 201.753,117.754C 221.101,104.421, 234.645,93.673, 239.239,76.00
	l 0.00-0.001c 0.018-0.068, 0.039-0.135, 0.057-0.203
	c 1.068-4.522, 1.646-9.181, 1.666-13.935
	c-0.325-37.182-26.35-66.116-100.199-66.116c-52.712,0.00-90.819,31.054-91.028,68.414
	c 0.004,0.431, 0.008,0.862, 0.024,1.292c 0.00,0.018, 0.001,0.034, 0.001,0.051
	c 0.114,3.006, 0.505,5.97, 1.149,8.881c 0.126,0.54, 0.241,1.082, 0.388,1.617
	c 1.008,3.941, 2.501,7.774, 4.399,11.479c 18.146,21.163, 45.655,33.045, 82.106,35.377
	C 165.923,124.654, 191.318,120.037, 201.753,117.754z M 154.649,225.747
	c-35.476,1.059-69.194,39.691-75.335,86.271
	c-6.121,46.609, 17.663,82.275, 53.153,81.203
	c 35.483-1.06, 69.215-38.435, 75.336-85.043
	C 213.924,261.595, 190.118,224.661, 154.649,225.747z"  />
<glyph unicode="&#x2945;" d="M 312.372,249.42c-3.019-31.681, 6.072-74.684-4.596-99.13
	c-156.279-17.234-135.143,296.682,0.00,271.536
	c-23.17-101.059, 102.842-96.07, 105.779-25.853
	c 2.149,52.667-61.307,77.12-96.572,81.887
	C 211.426,492.12, 79.031,435.294, 64.115,305.446
	c-14.818-128.942, 39.351-169.593, 142.511-215.503
	c-52.667-141.31, 144.555-149.273, 211.492-77.596
	c 50.165,53.704, 20.052,150.98, 32.179,237.073L 312.372,249.42 z M 271.002,38.207
	c-42.796,23.325-2.279,74.229, 32.181,77.582c 5.35,0.707, 8.171-0.954, 9.189-4.32
	C 316.393,70.356, 304.216,44.403, 271.002,38.207z"  />
<glyph unicode="&#x2946;" d="M 255.996,479.99c-141.369,0.00-255.982-114.597-255.982-255.989
	c0.00-141.377, 114.613-255.991, 255.982-255.991c 141.377,0.00, 255.99,114.613, 255.99,255.991
	C 511.986,365.393, 397.373,479.99, 255.996,479.99z M 393.82,145.232
	c-19.658,0.00-39.367,39.367-39.367,39.367s-27.979,98.506-157.516,118.151
	c 11.404-177.177-54.152-155.897-78.805-157.519
	c-24.606-1.635-38.892,34.117-38.892,78.768c0.00,97.616, 79.156,176.74, 176.756,176.74
	c 97.617,0.00, 174.42-79.124, 176.742-176.74
	C 433.221,204.309, 413.512,145.232, 393.82,145.232z"  />
<glyph unicode="&#x2947;" d="M 512.00-32.00L 512.00,480.00 L0.00,480.00 l0.00-512.00 L 512.00-32.00 z M 164.116,415.857l 93.17-178.536l 96.481,178.536L 390.00,415.857 L 274.286,200.929
	l0.00-136.50 l-32.572,0.00 l0.00,135.50 L 127.536,415.857L 164.116,415.857 z"  />
<glyph unicode="&#x2948;" d="M 399.82,90.304c-23.029,0.00-43.539,4.261-61.076,12.675l0.00-7.913 L0.00,95.065 l0.00,89.628 l 16.542,0.00 
	l0.00,61.493 L0.00,246.187 l0.00,89.63 l 131.734,0.00 l0.00-56.725 c 7.538,2.388, 15.414,3.596, 23.489,3.596
	c 12.692,0.00, 24.645-3.732, 35.001-10.863l0.00,8.103 l 30.825,0.00 l0.00,42.606 l 98.624,0.00 l 2.448,13.283
	l 176.894,0.00 l-4.714-91.166c 11.376-14.979, 17.625-33.568, 17.625-52.521
	C 511.926,132.176, 465.826,90.304, 399.82,90.304z M 338.744,139.229
	c 9.255-7.623, 28.833-19.094, 62.833-19.094c 25.486,0.00, 46.706,7.299, 61.366,21.105
	c 13.484,12.701, 20.91,30.773, 20.91,50.891c0.00,13.904-5.246,27.673-14.395,37.775
	c-7.307,8.069-20.623,17.689-42.563,17.689c-21.826,0.00-37.809-7.042-42.313-13.999
	l-7.178,2.861l 5.36,28.779l 84.487,0.00 l 2.108,40.749L 348.711,305.986 l-16.439-89.185
	l 41.065-5.347c 2.609,4.812, 7.977,9.431, 18.963,9.431
	c 14.185,0.00, 22.994-11.785, 22.994-30.758c0.00-18.56-8.917-38.534-28.499-38.534
	c-12.594,0.00-18.979,5.291-18.979,15.73c0.00,2.955, 0.702,5.23, 1.323,7.238
	c 0.607,1.97, 1.181,3.83, 1.181,6.544c0.00,8.395-4.824,17.364-18.365,17.364
	c-11.126,0.00-20.206-5.055-25.229-13.777l 12.019,0.00 L 338.744,139.229 z M 308.926,127.896l0.00,31.957 
	l-16.799,0.00 l0.00,90.247 l-68.074,0.00 l0.00-26.971 l 16.799,0.00 l0.00-63.275 l-16.799,0.00 l0.00-31.957 L 308.926,127.896 z
	 M 190.224,127.896l0.00,26.957 l-0.35,0.00 l0.00,58.08 c0.00,23.133-14.573,39.924-34.651,39.924
	c-22.395,0.00-38.396-15.102-45.903-29.235l-7.415,1.847l0.00,80.518 L 32.831,305.986 l0.00-29.969 l 13.542,0.00 
	l0.00-121.165 L 29.831,154.853 l0.00-26.957 l 79.337,0.00 l0.00,26.957 l-7.263,0.00 l0.00,38.771 l 0.121,0.477
	c 4.585,18.076, 12.083,28.032, 21.115,28.032c 11.458,0.00, 11.458-16.269, 11.458-25.988
	l0.00-41.291 l-7.52,0.00 l0.00-26.957 L 190.224,127.896 z M 287.127,267.997l0.00,24.707 L 255.878,292.704 l0.00-24.707 L 287.127,267.997 z"  />
<glyph unicode="&#x2949;" d="M 511.657,233.994C 506.071,335.219, 393.775,416.00, 256.00,416.00
		C 114.684,416.00, 0.105,330.982, 0.105,226.088c0.00-0.418, 0.01-0.839, 0.014-1.259
		C 0.118,224.553, 0.105,224.277, 0.105,224.00c0.00-46.629, 22.172-89.37, 59.032-122.629
		c 10.787-10.256, 22.656-19.174, 35.263-26.21C 94.511,47.881, 81.378,25.746, 64.00,0.00
		c 22.497,0.00, 63.67,10.425, 97.10,45.686c 29.362-8.803, 61.40-13.653, 94.953-13.653
		C 397.408,32.032, 512.00,117.979, 512.00,224.00C 512.00,227.352, 511.884,230.684, 511.657,233.994z
		 M 195.705,316.879c 28.546,0.00, 60.113-35.866, 60.113-53.885
		c0.00,18.019, 23.60,53.885, 62.682,53.885c 42.474,0.00, 63.91-30.251, 63.91-67.584
		c0.00-7.438-1.401-14.611-3.949-21.295c-0.859-3.199-2.441-6.605-4.944-10.252
		c-4.597-7.662-10.852-14.438-18.312-20.026
		c-35.918-33.013-99.326-69.95-99.326-69.95s-63.394,36.988-99.324,69.95
		c-7.477,5.588-13.687,12.364-18.298,20.026
		c-2.503,3.647-4.10,7.053-4.959,10.252c-2.547,6.685-3.935,13.857-3.935,21.295
		C 129.363,286.628, 153.276,316.879, 195.705,316.879z"  />
<glyph unicode="&#x294a;" d="M 442.779,76.094c-5.396,1.764-18.919-0.655-22.646,3.089
	c-3.697,3.697-2.153,27.357-2.153,39.228L 417.979,330.155 
	c0.00,26.453-3.743,65.804, 6.24,78.516c 5.739,7.393, 32.004,11.90, 35.187,21.805
	c 5.161,15.066-13.617,50.285-25.813,49.521L 398.359,479.997 
	c-27.888-5.662-55.479-7.534-78.749-19.668
	c-6.475-3.337-15.849-8.251-17.485-14.35
	c-6.487-22.787, 12.244-38.914, 27.872-45.465c 4.397-1.872, 19.06-2.386, 22.819-6.224
	c 5.848-6.067, 2.245-27.95, 0.966-39.289c-3.149-29.775-3.556-51.735,0.00-82.649
	c 1.279-10.106, 6.52-31.10-1.997-38.243c-5.833-4.663-33.97-4.867-45.543-6.177
	c-44.936-4.711-69.109-10.87-109.756-19.683
	c-5.616-0.999-16.627-6.177-22.741-2.98c-3.899,1.981-5.865,20.824-6.27,26.796
	c-3.087,41.098, 1.997,69.189, 1.997,109.445c0.00,13.444-0.515,28.901, 2.152,33.05
	c 6.191,10.076, 35.00,7.393, 42.47,19.73c 4.009,6.661, 2.465,18.686,0.00,25.782
	c-12.306,35.702-53.669,27.81-96.375,19.637
	c-30.195-5.818-58.254-10.372-69.375-32.083l0.00-9.249 
	c 6.644-16.159, 13.07-24.426, 25.985-29.978c 7.424-3.182, 19.933-2.308, 23.832-7.174
	c 3.291-4.477, 2.012-26.718, 2.012-40.272c0.00-48.242, 2.48-80.637, 3.073-127.133
	c 0.624-39.103, 1.605-85.004, 6.176-122.966c 1.653-12.712, 4.242-34.127,0.00-39.134
	c-1.903-2.402-8.734-2.838-12.229-4.133c-11.074-3.947-26.921-10.513-28.09-21.757
	c-1.451-13.868, 16.298-32.396, 29.993-36.263
	c 8.423-2.092, 12.852-1.779, 24.847-0.907c 31.132,2.511, 95.188,11.854, 98.433,38.244
	c 1.793,15.255-12.884,30.648-22.896,34.143c-4.056,1.436-21.493-1.593-25.736,5.116
	c-3.182,4.834-0.499,18.606-1.123,25.796c-1.279,15.552-6.645,49.677,0.00,59.847
	c 6.426,9.749, 28.761,13.555, 38.369,16.69
	c 31.911,10.105, 52.531,12.867, 91.134,18.559c 8.126,1.154, 46.183,5.757, 50.691,0.00
	c 1.762-2.511, 0.966-16.781, 0.966-24.83c 0.22-11.293-0.187-17.717,0.00-26.951
	c 0.50-15.098, 5.553-42.05-0.966-48.462c-5.102-5.13-18.875-3.804-24.80-6.158
	c-8.906-3.65-15.441-7.815-16.564-15.487
	c-2.636-17.877, 23.801-42.209, 40.333-43.392
	c 29.167-2.355, 64.369,8.826, 84.834,18.575c 8.641,4.055, 21.148,6.939, 23.879,11.37
	C 470.309,48.035, 455.241,72.086, 442.779,76.094z"  />
<glyph unicode="&#x294b;" d="M 431.639,267.591c 0.211,2.95, 0.344,5.916, 0.344,8.928
	c0.00,71.808-40.889,139.875-127.141,139.875c-71.105,0.00-96.455-41.616-116.224-87.185
	c-11.084,9.643-25.462,15.453-41.15,15.453c-35.19,0.00-63.69-29.174-63.69-65.161
	c0.00-3.802, 0.329-7.514, 0.943-11.104C 36.726,260.608, 0.024,218.141, 0.024,166.822
	C 0.024,110.058, 45.016,64.00, 100.521,64.00l 310.957,0.00 c 55.475,0.00, 100.498,46.058, 100.498,102.822
	C 511.977,216.529, 477.484,258.054, 431.639,267.591z"  />
<glyph unicode="&#x294d;" d="M 498.232,204.758c-5.896,8.67-11.742,17.308-20.584,23.093
	c-7.354,5.063-16.195,8.654-24.254,12.275c 22.78,10.833, 39.319,25.978, 46.688,45.465
	c 5.158,15.896-3.291,28.862-3.291,41.859l0.00,1.426 
	c0.00,14.47-20.945,23.83-39.335,28.894c-11.068,2.163-23.752,2.163-34.757,1.458
	l-24.395-5.063l 8.074,18.037c 7.336,23.101, 5.126,45.464-7.368,66.417l-2.227,3.582
	C 385.747,460.261, 369.552,471.078, 347.478,476.848
	c-22.794,5.785-44.523,3.621-65.123-7.204
	c-20.632-10.841-42.423-27.443-42.423-49.078l0.00-1.435 l-0.251-5.063l-2.712,5.063
	l-7.251,12.965c-11.774,18.053-26.409,28.886-44.806,33.95
	c-16.195,3.598-29.372,2.155-43.356-5.064c-15.427-9.367-24.253-23.846-27.938-44.03
	c-3.692-20.929, 0.016-41.153, 11.053-61.346l 5.135-7.243l-17.629,5.801
	c-22.082,5.063-42.667,2.163-63.251-8.654
	c-21.345-10.833-34.569-25.993-43.411-46.923
	c-8.09-20.208-7.33-39.664, 2.955-57.74
	c 4.421-7.933, 11.037-14.439, 16.90-18.782
	c 8.842-8.638, 19.879-13.702, 33.111-15.865l 5.134-1.442l-11.013-9.406
	c-10.308-8.67-16.179-19.487-19.855-30.305
	c-3.669-12.981-2.203-25.978, 5.149-38.27c 3.684-5.753, 7.353-10.77, 13.24-14.438
	c 5.887-5.002, 13.232-8.623, 22.05-9.375c 16.195-3.622, 33.111-3.622, 51.485,2.178
	l-13.255-21.649l-3.645-9.392c-7.368-23.061-5.181-43.285, 5.863-64.198
	c 5.15-7.996, 11.037-15.192, 16.924-21.683c 8.818-7.933, 19.832-12.996, 33.095-16.618
	c 22.027-5.738, 44.101-5.001, 65.454,5.801
	c 20.584,10.817, 33.808,28.172, 40.44,49.792l 0.705,4.312
	c 14.00-15.13, 27.231-25.226, 41.953-28.848c 14.705-4.326, 29.411-3.621, 42.643,5.049
	c 12.511,7.242, 21.337,19.487, 25.742,34.663c 3.669,15.865, 3.669,31.73,0.00,49.744
	c 7.338-5.017, 14.706-8.622, 23.516-10.771c 23.517-7.243, 44.132-6.49, 64.717,4.312
	c 19.849,10.817, 33.095,28.173, 39.711,50.528
	c 5.895,21.682, 4.421,42.596-6.616,62.788L 498.232,204.758z M 395.295,319.517
	l 8.81,3.622c 13.264,5.738, 25.743,7.211, 39.007,5.738
	c 12.463-1.426, 21.32-7.18, 25.71-15.865l 2.932-9.359l-1.458-7.243
	c-5.142-12.997-16.194-23.093-34.553-31.026
	c-7.368-3.59-15.442-5.048-24.269-6.459l-90.459-10.864l-1.489,5.064
	l-1.458,2.179l 2.947,3.621L 395.295,319.517z M 270.251,410.461
	c 3.685,14.431, 14.00,25.256, 27.231,32.476c 13.232,7.212, 27.938,8.678, 41.906,3.614
	c 15.458-3.614, 26.479-11.555, 33.126-23.822c 3.669-7.219, 5.849-15.889, 5.849-25.272
	l-2.18-15.858c-2.947-7.94-6.632-15.176-11.021-21.667l-66.206-79.39
	c-6.60,5.048-13.952,8.669-21.336,12.275l-7.369,81.539l-0.705,28.885
	L 270.251,410.461z M 144.549,408.306c 0.706,12.981, 5.84,21.643, 14.682,26.691
	c 4.421,3.622, 11.037,3.622, 16.90,0.721c 13.255-3.622, 24.30-12.989, 33.087-31.033
	c 3.692-7.228, 7.36-14.439, 8.842-23.085l 14.706-85.191l-11.014-3.59l-65.477,70.016
	l-3.668,7.211C 146.721,383.034, 143.06,395.301, 144.549,408.306z M 71.704,235.078
	l-7.337,1.426C 51.135,238.684, 42.293,244.437, 36.422,255.302
	c-5.879,10.802-5.879,21.62-1.458,32.452
	c 5.149,13.733, 14.705,24.536, 28.65,30.32
	c 13.264,7.227, 26.479,9.375, 41.201,5.785l 19.855-7.949l 64.716-46.186
	c-5.879-7.243-9.571-14.423-11.789-21.667L 71.704,235.078z M 239.931,42.371
	l-0.251-7.243c-5.158-12.98-13.749-23.798-26.981-29.553
	c-13.248-7.242-27.13-8.669-40.33-5.094c-14.753,3.62-25.703,12.274-31.59,23.844
	c-3.661,7.182-6.562,15.866-6.562,24.536l 3.653,16.57
	c 1.489,7.244, 5.189,14.471, 11.068,20.225l 61.777,72.21
	c 7.353-3.621, 14.227-7.243, 22.333-7.979c 1.458-24.504, 6.882-50.544, 6.882-78.653
	L 239.931,42.371 z M 216.579,186.682c-9.563,8.67-14.682,20.961-14.682,33.941
	c0.00,12.997, 5.119,23.814, 14.682,33.926c 8.834,7.933, 20.608,12.996, 34.569,12.996
	c 13.239,0.00, 25.734-5.063, 33.855-12.996c 10.252-10.112, 14.689-20.929, 14.689-33.926
	c0.00-12.98-4.438-25.271-14.689-33.941c-9.579-9.392-20.616-14.392-33.855-14.392
	C 237.187,172.29, 225.414,177.29, 216.579,186.682z M 352.651,60.416
	c-1.458-13.028-5.895-22.403-14.736-26.025
	c-5.126-3.574-11.006-3.574-16.90-2.884
	c-13.953,3.621-25.006,14.438-33.079,31.794l-8.842,23.798l-11.006,62.788
	l 12.464,4.358l 9.579,5.001l 30.884-30.994l 19.127-23.109l 3.669-7.195
	C 350.425,85.656, 354.125,74.102, 352.651,60.416z M 479.138,144.87
	c-3.70-14.471-12.511-25.288-25.037-31.041
	c-13.216-7.244-26.479-8.687-41.153-3.622
	c-8.843,2.133-14.722,5.801-19.848,11.555l-77.243,62.772l 5.158,10.817
	l 2.227,8.686l 83.074,7.227l 29.427,0.705l 7.369-0.705
	c 10.989-3.621, 21.32-10.128, 27.184-20.93c 7.354-7.979, 11.037-18.781, 11.037-31.088
	L 479.138,144.87z"  />
<glyph unicode="&#x294e;" d="M 467.098,238.154C 467.205,363.95, 362.789,465.831, 233.796,465.747
	C 104.835,465.654, 0.174,363.667, 0.012,237.87
	c-0.13-125.804, 104.279-227.678, 233.271-227.601
	c 36.92,0.031, 71.802,8.505, 102.837,23.372l 175.867-51.389l-57.412,182.979
	C 462.562,188.144, 467.052,212.636, 467.098,238.154z M 386.728,75.91l-80.063,25.258
	c-21.963-11.187-46.853-17.639-73.328-17.639
	C 145.871,83.466, 75.041,152.557, 75.125,237.916
	c 0.10,85.328, 71.105,154.533, 158.603,154.594
	c 87.512,0.062, 158.35-69.067, 158.273-154.395
	c-0.061-19.258-3.848-37.603-10.499-54.646l 29.578-82.561l 0.048-0.108l 2.604-7.341
	c 0.031,0.03, 0.077,0.093, 0.092,0.139l 10.225-26.99L 386.728,75.91z"  />
<glyph unicode="&#x294f;" d="M 126.726,465.645c 35.545-1.521, 58.587-6.376, 69.133-14.565
	c 10.519-8.189, 15.778-26.494, 15.778-54.961l0.00-344.236 
	c0.00-29.795-5.259-48.294-15.778-55.414c-10.546-7.154-33.587-11.831-69.133-14.098L 126.726-32.00 
	l 258.549,0.00 l0.00,14.37 c-35.546,2.267-58.605,6.943-69.124,14.098
	c-10.519,7.12-15.778,25.619-15.778,55.414L 300.372,396.118 
	c0.00,28.468, 5.26,46.772, 15.778,54.961s 33.578,13.044, 69.124,14.565L 385.274,480.00 L 126.726,480.00 L 126.726,465.645 z"  />
<glyph unicode="&#x2950;" d="M 256.06,480.336c-141.363,0.00-255.971-114.698-255.971-256.172
			C 0.089,82.703, 114.697-32.00, 256.06-32.00c 141.35,0.00, 255.963,114.703, 255.963,256.164
			C 512.023,365.639, 397.41,480.336, 256.06,480.336z M 256.06,19.226
			c-113.086,0.00-204.784,91.75-204.784,204.938c0.00,113.175, 91.698,204.945, 204.784,204.945
			c 113.10,0.00, 204.778-91.771, 204.778-204.945
			C 460.838,110.976, 369.16,19.226, 256.06,19.226zM 351.795,175.756c-0.032,0.398-0.113,0.749-0.163,1.164l 0.213,0.00 L 351.845,351.768 
		l 0.049,0.734l-0.049-0.016l0.00,0.016 l-0.163-0.056l-160.722-27.265L 190.96,178.719 
		c-6.558,2.583-13.865,3.651-21.526,2.693
		c-24.193-2.868-37.338-24.202-35.478-47.593
		c 1.191-15.188, 5.512-17.509, 18.538-23.483c 3.065-2.198, 8.239-3.625, 16.259-3.867
		c 0.773-0.032, 1.551-0.045, 2.335-0.037c 0.054,0.00, 0.104-0.002, 0.16-0.002
		c 0.032,0.00, 0.062,0.001, 0.094,0.001c 0.131,0.003, 0.262,0.003, 0.393,0.007
		c 50.071,0.317, 51.349,39.101, 51.349,39.101L 223.083,271.265 l 96.731,18.07l0.00-77.265 
		c-4.802,1.081-9.897,1.391-15.153,0.757
		c-24.177-2.919-42.361-24.237-40.521-47.611
		c 1.813-23.405, 22.959-29.986, 47.152-27.103
		C 335.503,141.063, 353.624,152.366, 351.795,175.756zM 128.056,144.336A48.00,48.00 180.00 1 1 224.056,144.336A48.00,48.00 180.00 1 1 128.056,144.336zM 256.00,176.336A48.00,48.00 180.00 1 1 352.00,176.336A48.00,48.00 180.00 1 1 256.00,176.336z"  />
<glyph unicode="&#x2951;" d="M 352.078,143.762A47.961,48.238 180.00 1 1 448.00,143.762A47.961,48.238 180.00 1 1 352.078,143.762zM 233.043,182.593l 65.172,68.067c 13.148,13.813, 21.905,27.602, 21.905,45.554
		c0.00,24.135-16.29,46.908-41.945,46.908c-16.901,0.00-28.185-8.969-41.963-23.462
		L 127.21,198.48L 127.21,427.55 c0.00,28.979-21.312,52.441-47.604,52.441
		C 53.296,479.991, 32.00,456.529, 32.00,427.55l0.00-407.092 c0.00-28.988, 21.296-52.449, 47.605-52.449
		c 26.293,0.00, 47.604,23.461, 47.604,52.449l0.00,60.024 l 38.197,37.954l 69.299-126.277
		c 11.285-17.248, 22.568-24.15, 41.334-24.15c 23.79,0.00, 44.491,19.329, 44.491,47.612
		c0.00,11.724-3.766,21.381-11.895,33.823L 233.043,182.593z"  />
<glyph unicode="&#x2952;" d="M 422.488,10.222c-10.017,0.00-16.688,5.315-18.785,14.967
	c-1.197,5.539-6.301,63.806-0.967,190.58c-5.012-5.234-10.549-9.233-16.539-11.94
	c-4.822-71.113-31.984-91.752-54.027-96.508c-3.444-0.744-6.859-1.122-10.151-1.122
	c-15.572,0.00-28.162,8.282-35.346,22.976c-8.657-17.004-17.939-25.302-31.077-28.148
	c-2.94-0.636-5.834-0.958-8.603-0.958c-16.368,0.00-28.587,11.299-32.689,30.223
	c-4.548,21.06-3.756,48.529, 2.506,86.252l-8.817,0.672
	c-7.187-52.673-14.309-73.303-26.056-75.843c-0.718-0.158-1.459-0.24-2.189-0.24
	c-4.824,0.00-8.553,3.375-9.73,8.807c-0.341,1.583, 0.092,3.763, 1.512,10.417
	c 2.555,11.975, 7.819,36.644, 8.877,72.188c-5.86,2.394-9.94,5.336-11.131,10.852
	c-2.542,11.76, 9.221,29.921, 26.066,33.564c 1.363,0.293, 2.737,0.441, 4.087,0.441
	c 7.409,0.00, 13.324-4.327, 14.719-10.768c 0.699-3.246, 0.75-8.145, 0.608-12.424
	l 13.047-1.058c 1.621,4.244, 4.171,8.346, 8.057,13.004l 0.329,0.395l 0.442,0.261
	c 2.876,1.694, 5.721,3.005, 7.248,3.34c 1.295,0.278, 2.686,0.417, 4.143,0.417
	c 8.529,0.00, 18.76-4.664, 20.415-12.201c 1.247-5.796-1.082-11.781-7.78-19.956
	c-13.275-39.582-17.446-73.637-12.06-98.51c 1.499-6.929, 4.773-10.156, 6.515-10.156
	c 0.076,0.00, 0.148,0.008, 0.216,0.022c 8.149,1.765, 17.443,18.894, 24.885,45.846
	c 1.286,20.286, 6.096,42.386, 13.555,62.268
	c 7.092,19.68, 16.45,30.926, 27.802,33.39c 1.672,0.362, 3.346,0.546, 4.974,0.546
	c 5.328,0.00, 10.017-1.918, 13.432-5.447c 2.244,0.896, 4.427,1.727, 7.06,2.292
	c 1.589,0.343, 3.206,0.518, 4.802,0.518c 14.066,0.00, 25.798-12.653, 31.851-34.086
	c 10.038,7.092, 14.563,16.913, 18.266,24.952c 1.08,2.343, 2.105,4.569, 3.17,6.481
	c 2.495,51.122, 3.696,74.477, 17.599,77.497c 1.123,0.243, 2.316,0.366, 3.547,0.366
	c 6.222,0.00, 13.61-3.188, 15.132-10.185c 0.874-4.054, 0.127-10.657-1.108-21.598
	c-0.785-6.938-1.764-15.594-2.552-25.924c 9.383,19.725, 17.262,28.615, 26.481,30.604
	c 1.88,0.407, 3.802,0.614, 5.708,0.614c 17.673,0.00, 32.783-17.008, 38.496-43.329
	c 6.019-27.839, 4.188-58.673-5.024-84.597c-9.169-25.808-23.964-42.676-40.588-46.279
	c-2.541-0.551-5.181-0.829-7.846-0.829c-0.001,0.00-0.002,0.00-0.002,0.00
	c-8.647,0.00-16.768,2.81-22.665,7.617c-0.906-72.563, 0.612-107.178, 2.381-115.358
	c 0.521-2.402, 1.956-3.397, 3.474-4.452c 1.308-0.907, 2.789-1.937, 3.189-3.865
	c 1.606-7.478-4.504-14.27-10.994-15.679
	C 427.543,10.526, 424.90,10.222, 422.488,10.222z M 344.80,239.785
	c-0.389,0.00-0.796-0.045-1.21-0.136c-5.191-1.123-13.83-11.77-20.535-32.49
	c-6.597-20.395-8.42-42.344-4.876-58.716c 2.505-11.632, 7.178-11.632, 8.713-11.632
	c 0.643,0.00, 1.341,0.079, 2.077,0.238c 6.844,1.478, 14.932,14.784, 20.128,33.112
	c 5.755,20.309, 7.021,42.479, 3.383,59.305
	C 351.053,236.022, 348.253,239.785, 344.80,239.785z M 435.434,179.484
	c 2.352-6.365, 8.016-10.601, 14.265-10.601c 0.925,0.00, 1.846,0.099, 2.737,0.292
	c 11.634,2.512, 18.149,14.319, 23.245,42.117
	c 4.021,22.697, 4.397,43.70, 1.058,59.124c-1.938,8.957-4.924,12.147-7.073,12.147
	c-0.201,0.00-0.411-0.023-0.628-0.07c-2.116-0.458-8.942-7.545-16.561-26.534
	C 446.652,241.441, 438.984,216.413, 435.434,179.484z M 16.341,43.229
	c-7.918,0.00-13.715,4.97-15.507,13.291c-3.029,13.964, 3.262,122.286, 16.832,289.788
	c-0.33,1.357-0.777,2.511-1.082,3.298c-0.227,0.584-0.376,0.97-0.459,1.378
	c-2.347,10.849-1.246,20.723, 3.187,28.523
	c 4.098,7.211, 10.777,12.139, 18.807,13.873c 2.03,0.439, 4.213,0.663, 6.489,0.663
	c 8.575,0.00, 19.314-3.358, 21.362-12.82c 1.117-5.16-0.442-19.421-3.548-47.832
	c-2.274-20.802-5.30-48.479-8.336-82.984
	C 86.362,302.13, 131.957,361.777, 176.766,418.894
	c 8.914,11.516, 15.582,17.057, 22.283,18.511c 1.151,0.249, 2.26,0.374, 3.298,0.374
	c 3.312,0.00, 9.163-1.373, 11.147-10.572c 1.405-6.538-1.808-13.458-8.019-17.397
	c-30.271-39.483-73.13-103.96-130.213-190.565
	c 75.599-48.277, 114.695-93.375, 118.333-110.183c 1.455-6.709-0.644-14.121-5.911-20.867
	c-4.524-5.795-10.707-10.126-16.133-11.30c-1.002-0.218-1.991-0.328-2.938-0.328
	c0.00,0.000.00,0.00-0.001,0.00c-4.295,0.00-7.561,2.276-8.319,5.80
	c-0.445,2.069, 0.244,3.945, 0.796,5.453c 0.425,1.163, 0.793,2.165, 0.62,2.95
	c-1.661,7.686-42.609,39.051-104.592,86.526l-9.173,7.027
	c-2.833-46.193-4.12-79.452-4.90-99.63
	c-0.519-13.408-0.804-20.794-1.199-23.132
	c-1.663-8.572-9.755-15.383-21.133-17.843
	C 19.223,43.396, 17.752,43.229, 16.341,43.229z"  />
<glyph unicode="&#x2953;" d="M 434.364,242.274c-39.367,12.99-67.485,17.788-67.485,49.446
	c0.00,22.31, 17.073,39.075, 41.037,39.075c 17.232,0.00, 30.779-6.832, 43.067-24.153
	l 32.607,16.78c-16.617,29.683-40.595,44.575-73.862,44.575
	c-51.012,0.00-82.421-30.985-82.421-77.448c0.00-47.647, 30.823-67.528, 90.481-87.321
	c 33.194-11.118, 52.856-17.951, 52.856-46.391c0.00-29.098-25.792-52.108-63.359-50.823
	c-38.241,1.304-50.018,22.355-63.842,54.10
	c-22.342,51.291-47.914,111.564-49.916,116.247
	c-26.07,60.564-77.375,94.738-140.955,94.738c-84.221,0.00-152.488-68.787-152.488-153.578
	C 0.085,132.684, 68.353,64.00, 152.573,64.00c 47.531,0.00, 90.015,21.856, 117.973,56.147
	l-19.706,45.717c-18.492-35.607-55.606-59.893-98.267-59.893
	c-61.143,0.00-110.751,49.96-110.751,111.55c0.00,61.618, 49.608,111.563, 110.751,111.563
	c 45.205,0.00, 85.261-26.713, 101.383-66.27l 48.701-111.711l 5.63-12.625
	c 19.737-46.243, 48.146-72.504, 101.441-72.723
	c 57.875-0.088, 102.187,37.786, 102.187,89.796
	C 511.915,205.086, 487.294,224.909, 434.364,242.274z"  />
<glyph unicode="&#x2954;" d="M 80.11,448.00c-29.028,0.00-48.023-20.547-48.023-47.545
		c0.00-26.424, 18.458-47.584, 46.893-47.584l 0.574,0.00 c 29.601,0.00, 47.999,21.16, 47.999,47.584
		C 127.01,427.453, 109.155,448.00, 80.11,448.00zM 32.00,320.00L 128.00,320.00L 128.00-0.99L 32.00-0.99zM 355.631,327.822c-58.273,0.00-84.318-32.947-98.883-55.997l0.00-1.094 l-0.727,0.00 
		c 0.211,0.356, 0.484,0.713, 0.727,1.094l0.00,48.031 L 160.00,319.856 c 1.478-31.819,0.00-320.847,0.00-320.847
		l 96.748,0.00 L 256.748,170.251 c0.00,10.129, 0.742,20.207, 3.633,27.468
		c 7.928,20.224, 25.965,41.185, 56.305,41.185c 39.705,0.00, 67.576-31.057, 67.576-76.61
		l0.00-163.283 l 97.717,0.00 L 481.979,175.323 C 481.979,279.376, 427.855,327.822, 355.631,327.822z"  />
</font>
</defs>
</svg>
